<?xml version="1.0" standalone="no"?>
<!DOCTYPE svg PUBLIC "-//W3C//DTD SVG 1.1//EN" "http://www.w3.org/Graphics/SVG/1.1/DTD/svg11.dtd" >
<svg xmlns="http://www.w3.org/2000/svg" xmlns:xlink="http://www.w3.org/1999/xlink" version="1.1">
<metadata>
Created by FontForge 20170812 at Sun Feb 24 18:47:05 2019
 By root
Copyright (c) 2010 by studio kmzero. All rights reserved.
</metadata>
<defs>
<font id="Bubbleboddy-ExtraLight" horiz-adv-x="535" >
  <font-face 
    font-family="Bubbleboddy"
    font-weight="200"
    font-stretch="normal"
    units-per-em="1000"
    panose-1="2 0 5 6 0 0 0 2 0 4"
    ascent="800"
    descent="-200"
    x-height="483"
    cap-height="630"
    bbox="-87 -205 1591 843"
    underline-thickness="50"
    underline-position="-100"
    unicode-range="U+0020-20AC"
  />
    <missing-glyph />
    <glyph glyph-name="g" unicode="g" horiz-adv-x="547" 
d="M188 -160q4 8 12 10.5t16 -1.5q38 -11 71 -11q37 0 70 12t58 35t39 56.5t14 76.5v109q-9 -25 -29.5 -48t-49 -41t-62.5 -28.5t-71 -10.5q-50 0 -92.5 19t-73.5 52t-48.5 77t-17.5 94t17.5 94t48.5 77t73.5 52t92.5 19q41 0 76.5 -13t63.5 -32.5t46.5 -41.5t25.5 -41v55
q0 38 7 55t22 17q11 0 11 -11v-453q0 -48 -16 -89t-45 -71t-68.5 -46.5t-85.5 -16.5q-43 0 -89 15q-9 3 -15.5 10t-0.5 20zM67 241q0 -42 13.5 -79.5t38.5 -65.5t60 -44t77 -16t80.5 16t67 44t45.5 65.5t17 79.5q0 41 -17.5 78.5t-46.5 65.5t-67 44.5t-79 16.5
q-42 0 -77 -16t-60 -44t-38.5 -65.5t-13.5 -79.5z" />
    <glyph glyph-name="i" unicode="i" horiz-adv-x="116" 
d="M59 484q8 0 14 -6t6 -14v-444q0 -8 -6 -14t-14 -6t-14 6t-6 14v444q0 8 6 14t14 6zM31 602q0 12 8 20.5t20 8.5t20.5 -8.5t8.5 -20.5t-8.5 -20t-20.5 -8t-20 8t-8 20z" />
    <glyph glyph-name="j" unicode="j" horiz-adv-x="122" 
d="M-84 -134q0 8 6 14t16 6q49 2 75 39.5t28 92.5v446q0 8 6 14t14 6t14 -6t6 -14v-446q-1 -74 -38.5 -122.5t-106.5 -49.5q-8 0 -14 6t-6 14zM33 602q0 12 8 20.5t20 8.5t20.5 -8.5t8.5 -20.5t-8.5 -20t-20.5 -8t-20 8t-8 20z" />
    <glyph glyph-name="k" unicode="k" horiz-adv-x="525" 
d="M80 185l383 304q7 5 15 4t13 -8q5 -6 4.5 -14.5t-7.5 -13.5l-174 -138l174 -289q10 -17 -7 -27q-7 -5 -15 -3t-12 9l-172 285l-202 -161v-113q0 -8 -6 -14t-14 -6t-14 6t-6 14v590q0 4 -1 7.5t0 6.5t5 4.5t14 1.5q11 0 16.5 -6t5.5 -14v-425z" />
    <glyph glyph-name="l" unicode="l" horiz-adv-x="119" 
d="M60 630q8 0 14 -6t6 -14v-590q0 -8 -6 -14t-14 -6t-14 6t-6 14v590q0 8 6 14t14 6z" />
    <glyph glyph-name="m" unicode="m" horiz-adv-x="779" 
d="M80 376q3 17 14.5 36t32 35t50.5 26t70 10q66 -1 102.5 -35t50.5 -89q5 19 17 40.5t33.5 40t52.5 31t73 12.5q49 0 81 -19t51 -51.5t26 -76.5t7 -94v-221q0 -9 -5.5 -15t-14.5 -6t-14.5 6t-5.5 15v220q0 42 -4.5 79.5t-18.5 65.5t-40 44t-68 16q-41 0 -70.5 -16.5
t-49 -44t-29 -64.5t-10.5 -79v-221q0 -9 -5.5 -15t-14.5 -6t-14.5 6t-5.5 15v220q0 42 -4.5 79.5t-18 65.5t-39 44t-67.5 16q-41 0 -71.5 -17t-50.5 -45.5t-30 -66t-10 -78.5v-218q0 -9 -5.5 -15t-14.5 -6t-14.5 6t-5.5 15v451q0 11 11 11q15 0 22 -17t7 -55v-35z" />
    <glyph glyph-name="n" unicode="n" horiz-adv-x="559" 
d="M80 355q7 19 26.5 41t48.5 41.5t65.5 32.5t77.5 13q50 0 91.5 -19t71.5 -51.5t46.5 -76.5t16.5 -94v-221q0 -9 -5.5 -15t-14.5 -6t-14.5 6t-5.5 15v220q0 42 -13 79.5t-37.5 65.5t-59 44t-76.5 16q-41 0 -80.5 -17t-70 -45.5t-49 -66t-18.5 -78.5v-218q0 -9 -5.5 -15
t-14.5 -6t-14.5 6t-5.5 15v451q0 11 11 11q15 0 22 -17t7 -55v-56z" />
    <glyph glyph-name="o" unicode="o" horiz-adv-x="540" 
d="M28 242q0 50 19 94t52 77t77 52t94 19t94 -19t77 -52t52 -77t19 -94t-19 -94t-52 -77t-77 -52t-94 -19t-94 19t-77 52t-52 77t-19 94zM70 242q0 -42 15.5 -79.5t42.5 -65.5t63.5 -44t78.5 -16t78.5 16t63.5 44t42.5 65.5t15.5 79.5t-15.5 79.5t-42.5 65.5t-63.5 44
t-78.5 16t-78.5 -16t-63.5 -44t-42.5 -65.5t-15.5 -79.5z" />
    <glyph glyph-name="p" unicode="p" horiz-adv-x="534" 
d="M80 356q9 25 29.5 48t49 41t62.5 28.5t71 10.5q50 0 92.5 -19t73.5 -52t48.5 -77t17.5 -94t-17.5 -94t-48.5 -77t-73.5 -52t-92.5 -19q-41 0 -76.5 13t-63.5 32.5t-46.5 41.5t-25.5 41v-259v-2q0 -8 -6 -14t-14 -6t-14 6t-6 14v605q0 11 11 11q15 0 22 -17t7 -55v-55z
M481 242q0 42 -13.5 79.5t-38.5 65.5t-60 44t-77 16t-80.5 -16t-67 -44t-45.5 -65.5t-17 -79.5q0 -41 17.5 -78.5t46.5 -65.5t67 -44.5t79 -16.5q42 0 77 16t60 44t38.5 65.5t13.5 79.5z" />
    <glyph glyph-name="q" unicode="q" 
d="M454 411q0 38 7 55t22 17q11 0 11 -11v-605q0 -8 -6 -14t-14 -6t-14 6t-6 14v2v259q-7 -19 -25.5 -41t-46.5 -41.5t-63.5 -32.5t-76.5 -13q-50 0 -92.5 19t-73.5 52t-48.5 77t-17.5 94t17.5 94t48.5 77t73.5 52t92.5 19q37 0 71 -10.5t62.5 -28.5t49 -41t29.5 -48v55z
M53 242q0 -42 13.5 -79.5t38.5 -65.5t60 -44t77 -16q41 0 79 16.5t67 44.5t46.5 65.5t17.5 78.5q0 42 -17 79.5t-45.5 65.5t-67 44t-80.5 16t-77 -16t-60 -44t-38.5 -65.5t-13.5 -79.5z" />
    <glyph glyph-name="r" unicode="r" horiz-adv-x="346" 
d="M80 358q4 16 20.5 38t42.5 41t60.5 32.5t74.5 13.5q14 0 27 -2.5t22 -5.5q19 -6 18 -24q-2 -9 -8.5 -14t-15.5 -4q-13 1 -23.5 6t-25.5 5q-39 0 -73.5 -16.5t-61 -44.5t-42 -65.5t-15.5 -78.5v-218q0 -9 -5.5 -15t-14.5 -6t-14.5 6t-5.5 15v451q0 11 11 11q15 0 22 -17
t7 -55v-53z" />
    <glyph glyph-name="s" unicode="s" horiz-adv-x="490" 
d="M241 0q-32 0 -70 9.5t-70.5 27t-54 43t-21.5 57.5q0 12 7 17t12 5q11 0 16.5 -6.5t5.5 -14.5q0 -15 13.5 -32t37 -31.5t55.5 -24.5t69 -10q67 -1 103 14t53 33t20 33.5t3 16.5q0 43 -47 66.5t-132 28.5q-65 3 -102 17t-56.5 33t-24.5 39t-5 37q0 22 10.5 44.5t33 40.5
t59 29.5t87.5 11.5q39 0 75.5 -9t64.5 -25.5t45.5 -39.5t17.5 -52q0 -8 -3 -12t-7 -5.5t-7.5 -2l-3.5 -0.5q-14 0 -17 9t-3 11q0 15 -12 30.5t-33.5 27.5t-50.5 20t-63 8q-48 0 -77.5 -10t-46 -24t-22.5 -28.5t-6 -23.5q0 -16 5.5 -30t21.5 -25t45 -19t75 -11
q41 -3 80.5 -10.5t70.5 -22.5t50 -40t19 -63q0 -37 -19 -63t-49.5 -42.5t-70 -24t-81.5 -7.5z" />
    <glyph glyph-name="t" unicode="t" horiz-adv-x="262" 
d="M130 617q8 0 14.5 -6.5t6.5 -14.5l-2 -134q6 0 19 0.5t27 1.5t26 1.5t16 0.5q22 0 22 -22q0 -8 -6 -14t-16 -6q-4 0 -16.5 0.5t-27 1t-27 1t-17.5 0.5l2 -406q0 -8 -6.5 -14.5t-14.5 -6.5t-14.5 6.5t-6.5 14.5l2 406l-87 -3q-8 0 -14 6t-6 14q0 10 6 16t14 6l87 -4
l-2 134q0 8 6.5 14.5t14.5 6.5z" />
    <glyph glyph-name="u" unicode="u" horiz-adv-x="559" 
d="M478 128q-7 -19 -26.5 -41t-48.5 -41.5t-65.5 -32.5t-77.5 -13q-50 0 -91.5 19t-71.5 51.5t-46.5 76.5t-16.5 94v221q0 9 5.5 15t14.5 6t14.5 -6t5.5 -15v-220q0 -42 13 -79.5t37.5 -65.5t59 -44t76.5 -16q41 0 80.5 17t70 45.5t49 66t18.5 78.5v218q0 9 5.5 15t14.5 6
t14.5 -6t5.5 -15v-451q0 -11 -11 -11q-15 0 -22 17t-7 55v56z" />
    <glyph glyph-name="w" unicode="w" horiz-adv-x="817" 
d="M37 483q2 1 5 1q6 0 12 -4t8 -10l169 -402l158 402q2 5 7.5 9.5t12.5 4.5q6 0 11.5 -4.5t7.5 -9.5l158 -402l169 402q2 6 8 10t12 4q3 0 5 -1q6 -3 9 -9t3 -12q0 -5 -1 -7l-182 -436q-2 -5 -8 -12t-15 -7t-14 5.5t-8 13.5l-156 396l-154 -396q-2 -5 -8 -12t-15 -7
t-14 5.5t-8 13.5l-183 436q-1 2 -1 7q0 6 3 12t9 9z" />
    <glyph glyph-name="v" unicode="v" horiz-adv-x="448" 
d="M30 483q8 2 15 -1.5t10 -11.5l169 -402l169 402q3 8 10 11.5t15 1.5q8 -4 11 -12t0 -16l-182 -436q-2 -5 -8 -12t-15 -7t-14 5.5t-8 13.5l-183 436q-3 8 0 16t11 12z" />
    <glyph glyph-name="x" unicode="x" horiz-adv-x="566" 
d="M525 33q5 -5 5 -13t-5 -13q-6 -6 -14.5 -6.5t-13.5 4.5l-214 212l-214 -212q-5 -5 -13.5 -4.5t-14.5 6.5q-5 5 -5 13t5 13l217 208l-216 208q-6 6 -6 15t6 15q5 5 13.5 4.5t14.5 -6.5l213 -212l213 212q6 6 14.5 6.5t13.5 -4.5q6 -6 6 -15t-6 -15l-217 -207z" />
    <glyph glyph-name="y" unicode="y" horiz-adv-x="538" 
d="M181 -160q4 8 12 10.5t16 -1.5q38 -11 71 -11q37 0 70 12t58 35t39 56.5t14 76.5v109q-9 -25 -29.5 -48t-49 -41t-62.5 -28.5t-71 -10.5q-50 0 -92.5 19t-73.5 52t-48.5 77t-17.5 94v220q0 22 21 22t21 -22v-220q0 -42 13.5 -79.5t38.5 -65.5t60 -44t77 -16t80.5 16
t67.5 44t46 65.5t17 79.5v66v154q0 22 21 22t21 -22v-417v-2v-24q0 -49 -16.5 -89.5t-46 -69t-70.5 -44.5t-89 -16q-20 0 -40 2.5t-42 8.5q-13 4 -16.5 13t0.5 17z" />
    <glyph glyph-name="z" unicode="z" horiz-adv-x="523" 
d="M35 463q0 8 5.5 14.5t13.5 6.5h415q8 0 13.5 -5.5t5.5 -13.5q0 -7 -7 -14l-401 -414l408 2q8 0 14 -6t6 -14t-6 -13.5t-14 -5.5h-452q-8 0 -13 5t-5 13t7 15l400 413l-371 -2q-8 0 -13.5 5.5t-5.5 13.5z" />
    <glyph glyph-name="c" unicode="c" horiz-adv-x="468" 
d="M401 395q-26 24 -60.5 37.5t-72.5 13.5q-42 0 -78.5 -16t-63.5 -44t-42.5 -65.5t-15.5 -79.5t15.5 -79.5t42.5 -65.5t63.5 -44t78.5 -16q37 0 73 13.5t62 39.5q6 6 15 6q7 0 15 -6q6 -8 6 -15q0 -9 -6 -15q-12 -10 -28.5 -20.5t-37 -19.5t-45.5 -14.5t-54 -5.5
q-50 0 -94 19t-77 52t-52 77t-19 94t19 94t52 77t77 52t94 19q42 0 87 -13.5t76 -44.5q6 -8 6 -15q0 -9 -6 -15q-8 -6 -15 -6q-9 0 -15 6z" />
    <glyph glyph-name="a" unicode="a" horiz-adv-x="553" 
d="M472 127q-9 -24 -29.5 -47t-48.5 -41t-62.5 -29t-71.5 -11q-50 0 -92.5 19t-73.5 52t-48.5 77t-17.5 94t17.5 94t48.5 77t73.5 52t92.5 19q41 0 76.5 -13t63.5 -32.5t46.5 -41.5t25.5 -41v55q0 38 7 55t22 17q11 0 11 -11v-460q0 -11 -11 -11q-15 0 -22 17t-7 55v55z
M71 241q0 -42 13.5 -79.5t38.5 -65.5t60 -44t77 -16t80.5 16t67 44t45.5 65.5t17 79.5q0 41 -17.5 78.5t-46.5 65.5t-67 44.5t-79 16.5q-42 0 -77 -16t-60 -44t-38.5 -65.5t-13.5 -79.5z" />
    <glyph glyph-name="d" unicode="d" 
d="M454 127q-9 -25 -29.5 -48t-49 -41t-62.5 -28.5t-71 -10.5q-50 0 -92.5 19t-73.5 52t-48.5 77t-17.5 94t17.5 94t48.5 77t73.5 52t92.5 19q41 0 76.5 -13t63.5 -32.5t46.5 -41.5t25.5 -41v259v2q0 8 6 14t14 6t14 -6t6 -14v-605q0 -11 -11 -11q-15 0 -22 17t-7 55v55z
M53 241q0 -42 13.5 -79.5t38.5 -65.5t60 -44t77 -16t80.5 16t67 44t45.5 65.5t17 79.5q0 41 -17.5 78.5t-46.5 65.5t-67 44.5t-79 16.5q-42 0 -77 -16t-60 -44t-38.5 -65.5t-13.5 -79.5z" />
    <glyph glyph-name="exclam" unicode="!" horiz-adv-x="118" 
d="M58 147q-8 0 -14 6t-6 14v444q0 8 6 14t14 6t14 -6t6 -14v-444q0 -8 -6 -14t-14 -6zM86 29q0 -12 -8 -20.5t-20 -8.5t-20.5 8.5t-8.5 20.5t8.5 20t20.5 8t20 -8t8 -20z" />
    <glyph glyph-name="quotedbl" unicode="&#x22;" horiz-adv-x="193" 
d="M56 637q8 0 14 -6t6 -14v-98q0 -8 -6 -14t-14 -6t-14 6t-6 14v98q0 8 6 14t14 6zM136 637q8 0 14 -6t6 -14v-98q0 -8 -6 -14t-14 -6t-14 6t-6 14v98q0 8 6 14t14 6z" />
    <glyph glyph-name="percent" unicode="%" horiz-adv-x="577" 
d="M22 500q0 28 10.5 53t29 44t43 29.5t53.5 10.5q28 0 53 -10.5t44 -29.5t29.5 -44t10.5 -53q0 -29 -10.5 -53.5t-29.5 -43t-44 -29t-53 -10.5q-29 0 -53.5 10.5t-43 29t-29 43t-10.5 53.5zM414 635q8 -3 11 -10.5t1 -15.5l-238 -597q-3 -8 -10.5 -10.5t-15.5 0.5
t-10.5 10.5t-0.5 15.5l237 596q3 8 10.5 11t15.5 0zM62 500q0 -41 27.5 -68.5t68.5 -27.5t69 27.5t28 68.5t-28 69t-69 28t-68.5 -28t-27.5 -69zM282 136q0 28 10.5 53t29 44t43 29.5t53.5 10.5q28 0 53 -10.5t44 -29.5t29.5 -44t10.5 -53q0 -29 -10.5 -53.5t-29.5 -43
t-44 -29t-53 -10.5q-29 0 -53.5 10.5t-43 29t-29 43t-10.5 53.5zM322 136q0 -41 27.5 -68.5t68.5 -27.5t69 27.5t28 68.5t-28 69t-69 28t-68.5 -28t-27.5 -69z" />
    <glyph glyph-name="ampersand" unicode="&#x26;" horiz-adv-x="427" 
d="M301 370v136q0 8 6 14t14 6t14 -6t6 -14v-136h53q8 0 13.5 -6t5.5 -14q0 -19 -19 -19h-53v-311q0 -8 -6 -14t-14 -6h-109q-39 0 -72.5 14.5t-59 39.5t-40 58.5t-14.5 72.5q0 56 29.5 101t77.5 67q-32 20 -51.5 53.5t-19.5 74.5q0 31 12 58.5t32 47.5t47.5 32t58.5 12h19
q8 0 14 -6t6 -14t-6 -14t-14 -6h-19q-23 0 -43 -8.5t-35 -23.5t-23.5 -35t-8.5 -43t8.5 -43t23.5 -35t35 -24t43 -9h89zM301 39v292h-89q-30 0 -57 -11.5t-46.5 -31.5t-31 -46.5t-11.5 -56.5t11.5 -56.5t31 -46.5t46.5 -31.5t57 -11.5h89z" />
    <glyph glyph-name="quotesingle" unicode="'" horiz-adv-x="122" 
d="M58 638q8 0 14 -6t6 -14v-98q0 -8 -6 -14t-14 -6t-14 6t-6 14v98q0 8 6 14t14 6z" />
    <glyph glyph-name="parenleft" unicode="(" horiz-adv-x="251" 
d="M245 -132q0 -8 -6 -14t-14 -6q-40 0 -75 15t-61.5 41.5t-42 61.5t-15.5 75v397q0 40 15.5 75t41.5 61t61.5 41.5t75.5 15.5q8 0 14 -6t6 -14t-6 -14t-16 -6q-32 0 -59.5 -12.5t-48 -33.5t-32.5 -48.5t-12 -58.5v-397q0 -31 12 -58.5t33 -48.5t49 -33.5t60 -12.5
q8 0 14 -6t6 -14z" />
    <glyph glyph-name="parenright" unicode=")" horiz-adv-x="251" 
d="M6 -132q0 8 6 14t14 6q32 0 60 12.5t49 33.5t33 48.5t12 58.5v397q0 31 -12 58.5t-32.5 48.5t-48.5 33.5t-59 12.5q-10 0 -16 6t-6 14t6 14t14 6q40 0 75.5 -15.5t61.5 -41.5t41.5 -61t15.5 -75v-397q0 -40 -15.5 -75t-42 -61.5t-61.5 -41.5t-75 -15q-8 0 -14 6t-6 14z
" />
    <glyph glyph-name="asterisk" unicode="*" horiz-adv-x="403" 
d="M202 631q8 0 14 -6t6 -14v-149l131 84q7 5 14.5 3.5t12.5 -9.5q5 -7 3.5 -15t-9.5 -12l-136 -87l143 -91q7 -4 9 -11.5t-3 -15.5t-13 -9.5t-15 3.5l-137 88v-157q0 -8 -6 -14t-14 -6t-14 6t-6 14v156l-138 -88q-7 -5 -15 -3.5t-13 9.5t-3 15.5t9 11.5l144 92l-137 88
q-8 4 -9.5 12t3.5 15q5 8 12.5 9.5t14.5 -3.5l132 -85v149q0 8 6 14t14 6z" />
    <glyph glyph-name="bracketleft" unicode="[" horiz-adv-x="162" 
d="M159 -127q0 -8 -6 -14t-14 -6h-79q-8 0 -14 6t-6 14v738q0 8 6 14t14 6h79q8 0 14 -6t6 -14t-6 -14t-14 -6l-59 2v-702l59 2q8 0 14 -6t6 -14z" />
    <glyph glyph-name="bracketright" unicode="]" horiz-adv-x="164" 
d="M3 -127q0 8 6 14t14 6l59 -2v702l-59 -2q-8 0 -14 6t-6 14t6 14t14 6h79q8 0 14 -6t6 -14v-738q0 -8 -6 -14t-14 -6h-79q-8 0 -14 6t-6 14z" />
    <glyph glyph-name="plus" unicode="+" horiz-adv-x="384" 
d="M192 117q-8 0 -14 6t-6 14l2 151l-151 -2q-8 0 -14 6t-6 14t6 14t14 6l151 -2l-2 151q0 8 6 14t14 6t14 -6t6 -14l-2 -151l151 2q8 0 14 -6t6 -14t-6 -14t-14 -6l-151 2l2 -151q0 -8 -6 -14t-14 -6z" />
    <glyph glyph-name="comma" unicode="," horiz-adv-x="103" 
d="M70 39q15 -7 16.5 -19t-3.5 -20q-14 -23 -22.5 -36t-15 -18.5t-11 -5.5t-8.5 2q-5 2 -8 6.5t-3 13.5t3.5 24.5t13.5 40.5q4 8 14.5 13.5t23.5 -1.5z" />
    <glyph glyph-name="hyphen" unicode="-" horiz-adv-x="456" 
d="M417 301q0 -8 -6 -14t-14 -6h-338q-8 0 -14 6t-6 14t6 14t14 6h338q8 0 14 -6t6 -14z" />
    <glyph glyph-name="period" unicode="." horiz-adv-x="98" 
d="M20 28q0 12 8 20.5t20 8.5t20.5 -8.5t8.5 -20.5t-8.5 -20t-20.5 -8t-20 8t-8 20z" />
    <glyph glyph-name="slash" unicode="/" horiz-adv-x="287" 
d="M269 635q8 -3 11 -10.5t1 -15.5l-238 -597q-3 -8 -10.5 -10.5t-15.5 0.5t-10.5 10.5t-0.5 15.5l237 596q3 8 10.5 11t15.5 0z" />
    <glyph glyph-name="braceleft" unicode="{" horiz-adv-x="182" 
d="M94 287q-1 -24 -17 -41q8 -8 12.5 -19t4.5 -23v-307l59 2q8 0 14 -6t6 -14t-6 -14t-14 -6h-79q-8 0 -14 6t-6 14v325q0 8 -5.5 14t-13.5 8h-3q-8 0 -14 6t-6 14t6 14t14 6h3q8 1 13.5 7.5t5.5 14.5v329q0 8 6 14t14 6h79q8 0 14 -6t6 -14t-6 -14t-14 -6l-59 2v-312z" />
    <glyph glyph-name="backslash" unicode="\" horiz-adv-x="302" 
d="M18 637q8 3 15.5 0.5t10.5 -10.5l251 -599q3 -8 0 -15.5t-11 -10.5t-15.5 0t-10.5 11l-251 598q-3 8 0 15.5t11 10.5z" />
    <glyph glyph-name="bar" unicode="|" horiz-adv-x="120" 
d="M60 637q8 0 14 -6t6 -14v-730q0 -8 -6 -14t-14 -6t-14 6t-6 14v730q0 8 6 14t14 6z" />
    <glyph glyph-name="braceright" unicode="}" horiz-adv-x="182" 
d="M88 599l-59 -2q-8 0 -14 6t-6 14t6 14t14 6h79q8 0 14 -6t6 -14v-329q0 -8 5.5 -14.5t13.5 -7.5h3q8 0 14 -6t6 -14t-6 -14t-14 -6h-3q-8 -2 -13.5 -8t-5.5 -14v-325q0 -8 -6 -14t-14 -6h-79q-8 0 -14 6t-6 14t6 14t14 6l59 -2v307q0 12 4.5 23t12.5 19q-16 17 -17 41
v312z" />
    <glyph glyph-name="colon" unicode=":" horiz-adv-x="117" 
d="M30 454q0 12 8 20.5t20 8.5t20.5 -8.5t8.5 -20.5t-8.5 -20t-20.5 -8t-20 8t-8 20zM30 28q0 12 8 20.5t20 8.5t20.5 -8.5t8.5 -20.5t-8.5 -20t-20.5 -8t-20 8t-8 20z" />
    <glyph glyph-name="semicolon" unicode=";" horiz-adv-x="129" 
d="M35 454q0 12 8 20.5t20 8.5t20.5 -8.5t8.5 -20.5t-8.5 -20t-20.5 -8t-20 8t-8 20zM76 39q15 -7 16.5 -19t-3.5 -20q-14 -23 -22.5 -36t-15 -18.5t-11 -5.5t-8.5 2q-5 2 -8 6.5t-3 13.5t3.5 24.5t13.5 40.5q4 8 14.5 13.5t23.5 -1.5z" />
    <glyph glyph-name="quoteleft" unicode="&#x2018;" horiz-adv-x="91" 
d="M25 532q-15 7 -16.5 19t3.5 20q13 23 22 36t15.5 18.5t10.5 5.5t9 -2q4 -2 7.5 -6.5t3.5 -13.5t-3.5 -24.5t-13.5 -40.5q-4 -8 -14.5 -13.5t-23.5 1.5z" />
    <glyph glyph-name="quoteright" unicode="&#x2019;" horiz-adv-x="91" 
d="M69 628q15 -7 16.5 -19t-3.5 -20q-14 -23 -22.5 -36t-15 -18.5t-11 -5.5t-8.5 2q-5 2 -8 6.5t-3 13.5t3.5 24.5t13.5 40.5q4 8 14.5 13.5t23.5 -1.5z" />
    <glyph glyph-name="quotedblleft" unicode="&#x201c;" horiz-adv-x="198" 
d="M40 532q-15 7 -16.5 19t3.5 20q13 23 22 36t15.5 18.5t10.5 5.5t9 -2q4 -2 7.5 -6.5t3.5 -13.5t-3.5 -24.5t-13.5 -40.5q-4 -8 -14.5 -13.5t-23.5 1.5zM120 532q-15 7 -16.5 19t3.5 20q13 23 22 36t15.5 18.5t10.5 5.5t9 -2q4 -2 7.5 -6.5t3.5 -13.5t-3.5 -24.5
t-13.5 -40.5q-4 -8 -14.5 -13.5t-23.5 1.5z" />
    <glyph glyph-name="quotedblright" unicode="&#x201d;" horiz-adv-x="197" 
d="M164 628q15 -7 16.5 -19t-3.5 -20q-14 -23 -22.5 -36t-15 -18.5t-11 -5.5t-8.5 2q-5 2 -8 6.5t-3 13.5t3.5 24.5t13.5 40.5q4 8 14.5 13.5t23.5 -1.5zM84 628q15 -7 16.5 -19t-3.5 -20q-14 -23 -22.5 -36t-15 -18.5t-11 -5.5t-8.5 2q-5 2 -8 6.5t-3 13.5t3.5 24.5
t13.5 40.5q4 8 14.5 13.5t23.5 -1.5z" />
    <glyph glyph-name="quotesinglbase" unicode="&#x201a;" horiz-adv-x="126" 
d="M76 39q15 -7 16.5 -19t-3.5 -20q-14 -23 -22.5 -36t-15 -18.5t-11 -5.5t-8.5 2q-5 2 -8 6.5t-3 13.5t3.5 24.5t13.5 40.5q4 8 14.5 13.5t23.5 -1.5z" />
    <glyph glyph-name="quotedblbase" unicode="&#x201e;" horiz-adv-x="189" 
d="M76 39q15 -7 16.5 -19t-3.5 -20q-14 -23 -22.5 -36t-15 -18.5t-11 -5.5t-8.5 2q-5 2 -8 6.5t-3 13.5t3.5 24.5t13.5 40.5q4 8 14.5 13.5t23.5 -1.5zM156 39q15 -7 16.5 -19t-3.5 -20q-14 -23 -22.5 -36t-15 -18.5t-11 -5.5t-8.5 2q-5 2 -8 6.5t-3 13.5t3.5 24.5
t13.5 40.5q4 8 14.5 13.5t23.5 -1.5z" />
    <glyph glyph-name="grave" unicode="`" horiz-adv-x="112" 
d="M17 622q10 11 22 9.5t18 -7.5q18 -20 27 -33t12 -21.5t1.5 -13.5t-4.5 -9q-3 -3 -7.5 -4.5t-12 1.5t-20.5 11.5t-34 25.5q-7 6 -10 17.5t8 23.5z" />
    <glyph glyph-name="acute" unicode="&#xb4;" horiz-adv-x="112" 
d="M93 622q11 -12 8 -23.5t-10 -17.5q-21 -17 -34 -25.5t-20.5 -11.5t-12 -1.5t-7.5 4.5q-3 4 -4.5 9t1.5 13.5t12 21.5t27 33q6 6 18 7.5t22 -9.5z" />
    <glyph glyph-name="question" unicode="?" horiz-adv-x="485" 
d="M249 231q11 0 24.5 3t26.5 7.5t25 10.5t21 12q45 31 62.5 71.5t17.5 78.5q0 22 -5 42t-13 35q-29 51 -70.5 76.5t-88.5 25.5q-48 0 -92 -25q-32 -18 -56.5 -42.5t-35.5 -56.5q-7 -19 -22 -16q-10 2 -13.5 9.5t-1.5 15.5q11 39 42.5 70.5t68.5 51.5q58 31 115 31
t104.5 -29.5t79.5 -82.5q12 -20 19 -46.5t7 -56.5q0 -49 -22.5 -99.5t-76.5 -85.5q-20 -13 -48.5 -22t-47.5 -12v-31q0 -8 -6 -13.5t-14 -5.5t-14 5.5t-6 13.5v47q0 8 6 13t14 5zM222 28q0 12 8 20.5t20 8.5t20.5 -8.5t8.5 -20.5t-8.5 -20t-20.5 -8t-20 8t-8 20z" />
    <glyph glyph-name="B" unicode="B" horiz-adv-x="514" 
d="M56 0q-8 0 -14 6t-6 14v591q0 4 -1 7.5t0 6.5t5 4.5t14 1.5h4h239h1q31 0 58.5 -12t47.5 -32t32 -47.5t12 -58.5q0 -41 -19.5 -74.5t-51.5 -53.5q48 -22 77.5 -67t29.5 -101q0 -39 -14.5 -72.5t-40 -58.5t-59 -39.5t-72.5 -14.5h-242zM76 330v-291h221h1q30 0 57 11.5
t46.5 31.5t31 46.5t11.5 56.5t-11.5 56.5t-31 46t-46.5 31t-57 11.5h-222zM76 591v-220h222q23 0 43 8.5t35 23.5t23.5 35t8.5 43t-8.5 43t-23.5 35t-35 23.5t-43 8.5h-222z" />
    <glyph glyph-name="equal" unicode="=" horiz-adv-x="456" 
d="M417 226q0 -8 -6 -14t-14 -6h-338q-8 0 -14 6t-6 14t6 14t14 6h338q8 0 14 -6t6 -14zM417 346q0 -8 -6 -14t-14 -6h-338q-8 0 -14 6t-6 14t6 14t14 6h338q8 0 14 -6t6 -14z" />
    <glyph glyph-name="less" unicode="&#x3c;" horiz-adv-x="291" 
d="M246 89q-6 -5 -14.5 -5t-14.5 5l-179 179q-5 5 -7.5 8t-2.5 9q0 8 3 11.5t7 7.5l188 189q6 5 14.5 5t14.5 -5q5 -6 5 -14.5t-5 -14.5l-189 -178l180 -168q5 -6 5 -14.5t-5 -14.5z" />
    <glyph glyph-name="greater" unicode="&#x3e;" horiz-adv-x="289" 
d="M46 89q-5 6 -5 14.5t5 14.5l180 168l-189 178q-5 6 -5 14.5t5 14.5q6 5 14.5 5t14.5 -5l188 -189q4 -4 7 -7.5t3 -11.5q0 -6 -2.5 -9t-7.5 -8l-179 -179q-6 -5 -14.5 -5t-14.5 5z" />
    <glyph glyph-name="tilde" unicode="&#x2dc;" horiz-adv-x="430" 
d="M358 823q0 8 6 14t14 6t14 -6t6 -14q0 -23 -9 -46t-24 -42t-35 -30.5t-43 -11.5q-17 0 -29 5.5t-21 13.5t-15.5 18t-12.5 19q-6 8 -12 18t-15 18.5t-20.5 14.5t-27.5 6q-15 0 -26 -9t-18.5 -23t-11.5 -30.5t-4 -31.5q0 -8 -6 -14t-14 -6t-14 6t-6 14q0 23 7 46.5t20 42
t31.5 30.5t41.5 12q21 0 36.5 -5.5t26.5 -14.5t18.5 -20t14.5 -21q4 -7 9 -15.5t12 -16.5t15.5 -13.5t20.5 -5.5q16 0 29 8.5t22 22t14.5 30t5.5 31.5z" />
    <glyph glyph-name="exclamdown" unicode="&#xa1;" horiz-adv-x="102" 
d="M51 359.054q-8 0 -14 -5.99805q-6 -5.99707 -6 -13.9941v-443.838q0 -7.99707 6 -13.9951q6 -5.99707 14 -5.99707t14 5.99707q6 5.99805 6 13.9951v443.838q0 7.99707 -6 13.9941q-6 5.99805 -14 5.99805zM79 477.011q0 11.9951 -8 20.4922t-20 8.49707t-20.5 -8.49707
t-8.5 -20.4922q0 -11.9961 8.5 -19.9932t20.5 -7.99707t20 7.99707t8 19.9932z" />
    <glyph glyph-name="questiondown" unicode="&#xbf;" horiz-adv-x="504" 
d="M223.091 254.085q-10.9951 0 -24.4902 -2.99902t-26.4912 -7.49707q-12.9951 -4.49902 -24.9902 -10.4971q-11.9961 -5.99707 -20.9922 -11.9951q-44.9834 -30.9883 -62.4775 -71.4736q-17.4932 -40.4854 -17.4932 -78.4717q0 -21.9912 4.99805 -41.9844
t12.9951 -34.9873q28.9893 -50.9814 70.4746 -76.4717q41.4844 -25.4912 88.4668 -25.4912q47.9824 0 91.9668 24.9912q31.9883 17.9932 56.4795 42.4844q24.4902 24.4912 35.4863 56.4795q6.99805 18.9932 21.9922 15.9941q9.99609 -1.99902 13.4951 -9.49707
q3.49902 -7.49707 1.49902 -15.4941q-10.9951 -38.9854 -42.4844 -70.4736q-31.4883 -31.4883 -68.4746 -51.4814q-57.9785 -30.9883 -114.958 -30.9883q-56.9785 0 -104.462 29.4893q-47.4824 29.4883 -79.4707 82.4697q-11.9951 19.9922 -18.9932 46.4824
q-6.99707 26.4902 -6.99707 56.4795q0 48.9824 22.4922 99.4639q22.4912 50.4814 76.4717 85.4688q19.9922 12.9951 48.4824 21.9912q28.4893 8.99707 47.4824 11.9961v30.9883q0 7.99707 5.99805 13.4951q5.99707 5.49805 13.9941 5.49805t13.9951 -5.49805
t5.99805 -13.4951v-46.9824q0 -7.99707 -5.99805 -12.9951t-13.9951 -4.99805zM250.081 457.01q0 -11.9951 -7.99707 -20.4922t-19.9922 -8.49707q-11.9961 0 -20.4932 8.49707q-8.49609 8.49707 -8.49609 20.4922q0 11.9961 8.49609 19.9932
q8.49707 7.99707 20.4932 7.99707q11.9951 0 19.9922 -7.99707t7.99707 -19.9932z" />
    <glyph glyph-name="dieresis" unicode="&#xa8;" horiz-adv-x="261" 
d="M32 665q0 12 8 20.5t20 8.5t20.5 -8.5t8.5 -20.5t-8.5 -20t-20.5 -8t-20 8t-8 20zM172 665q0 12 8 20.5t20 8.5t20.5 -8.5t8.5 -20.5t-8.5 -20t-20.5 -8t-20 8t-8 20z" />
    <glyph glyph-name="egrave" unicode="&#xe8;" horiz-adv-x="525" 
d="M267 0q-50 0 -94 19t-77 51.5t-52 76.5t-19 94q0 56 20 101t54.5 76.5t80 48.5t95.5 17t93 -18.5t74.5 -51t49.5 -76.5t18 -95q0 -8 -6 -14t-17 -6h-420q3 -39 20 -73t43.5 -59t61.5 -39.5t75 -14.5q37 0 73 13.5t62 39.5q6 6 15 6t15 -6q5 -6 6 -14.5t-6 -15.5
q-12 -10 -28.5 -20.5t-37 -19.5t-45.5 -14.5t-54 -5.5zM275 447q-40 0 -76 -14.5t-64 -39.5t-45.5 -59t-21.5 -73h401q-3 39 -18.5 73t-41 59t-60 39.5t-74.5 14.5zM204 606q10 11 22 9.5t18 -7.5q18 -20 27 -33t12 -21.5t1.5 -13.5t-4.5 -9q-3 -3 -7.5 -4.5t-12 1.5
t-20.5 11.5t-34 25.5q-7 6 -10 17.5t8 23.5z" />
    <glyph glyph-name="eacute" unicode="&#xe9;" horiz-adv-x="525" 
d="M267 0q-50 0 -94 19t-77 51.5t-52 76.5t-19 94q0 56 20 101t54.5 76.5t80 48.5t95.5 17t93 -18.5t74.5 -51t49.5 -76.5t18 -95q0 -8 -6 -14t-17 -6h-420q3 -39 20 -73t43.5 -59t61.5 -39.5t75 -14.5q37 0 73 13.5t62 39.5q6 6 15 6t15 -6q5 -6 6 -14.5t-6 -15.5
q-12 -10 -28.5 -20.5t-37 -19.5t-45.5 -14.5t-54 -5.5zM275 447q-40 0 -76 -14.5t-64 -39.5t-45.5 -59t-21.5 -73h401q-3 39 -18.5 73t-41 59t-60 39.5t-74.5 14.5zM347 606q11 -12 8 -23.5t-10 -17.5q-21 -17 -34 -25.5t-20.5 -11.5t-12 -1.5t-7.5 4.5q-3 4 -4.5 9
t1.5 13.5t12 21.5t27 33q6 6 18 7.5t22 -9.5z" />
    <glyph glyph-name="edieresis" unicode="&#xeb;" horiz-adv-x="525" 
d="M267 0q-50 0 -94 19t-77 51.5t-52 76.5t-19 94q0 56 20 101t54.5 76.5t80 48.5t95.5 17t93 -18.5t74.5 -51t49.5 -76.5t18 -95q0 -8 -6 -14t-17 -6h-420q3 -39 20 -73t43.5 -59t61.5 -39.5t75 -14.5q37 0 73 13.5t62 39.5q6 6 15 6t15 -6q5 -6 6 -14.5t-6 -15.5
q-12 -10 -28.5 -20.5t-37 -19.5t-45.5 -14.5t-54 -5.5zM275 447q-40 0 -76 -14.5t-64 -39.5t-45.5 -59t-21.5 -73h401q-3 39 -18.5 73t-41 59t-60 39.5t-74.5 14.5zM167 597q0 12 8 20.5t20 8.5t20.5 -8.5t8.5 -20.5t-8.5 -20t-20.5 -8t-20 8t-8 20zM307 597q0 12 8 20.5
t20 8.5t20.5 -8.5t8.5 -20.5t-8.5 -20t-20.5 -8t-20 8t-8 20z" />
    <glyph glyph-name="ograve" unicode="&#xf2;" horiz-adv-x="524" 
d="M22 242q0 50 19 94t52 77t77 52t94 19t94 -19t77 -52t52 -77t19 -94t-19 -94t-52 -77t-77 -52t-94 -19t-94 19t-77 52t-52 77t-19 94zM64 242q0 -42 15.5 -79.5t42.5 -65.5t63.5 -44t78.5 -16t78.5 16t63.5 44t42.5 65.5t15.5 79.5t-15.5 79.5t-42.5 65.5t-63.5 44
t-78.5 16t-78.5 -16t-63.5 -44t-42.5 -65.5t-15.5 -79.5zM192 605q10 11 22 9.5t18 -7.5q18 -20 27 -33t12 -21.5t1.5 -13.5t-4.5 -9q-3 -3 -7.5 -4.5t-12 1.5t-20.5 11.5t-34 25.5q-7 6 -10 17.5t8 23.5z" />
    <glyph glyph-name="oacute" unicode="&#xf3;" horiz-adv-x="524" 
d="M22 242q0 50 19 94t52 77t77 52t94 19t94 -19t77 -52t52 -77t19 -94t-19 -94t-52 -77t-77 -52t-94 -19t-94 19t-77 52t-52 77t-19 94zM64 242q0 -42 15.5 -79.5t42.5 -65.5t63.5 -44t78.5 -16t78.5 16t63.5 44t42.5 65.5t15.5 79.5t-15.5 79.5t-42.5 65.5t-63.5 44
t-78.5 16t-78.5 -16t-63.5 -44t-42.5 -65.5t-15.5 -79.5zM343 605q11 -12 8 -23.5t-10 -17.5q-21 -17 -34 -25.5t-20.5 -11.5t-12 -1.5t-7.5 4.5q-3 4 -4.5 9t1.5 13.5t12 21.5t27 33q6 6 18 7.5t22 -9.5z" />
    <glyph glyph-name="otilde" unicode="&#xf5;" horiz-adv-x="524" 
d="M22 242q0 50 19 94t52 77t77 52t94 19t94 -19t77 -52t52 -77t19 -94t-19 -94t-52 -77t-77 -52t-94 -19t-94 19t-77 52t-52 77t-19 94zM64 242q0 -42 15.5 -79.5t42.5 -65.5t63.5 -44t78.5 -16t78.5 16t63.5 44t42.5 65.5t15.5 79.5t-15.5 79.5t-42.5 65.5t-63.5 44
t-78.5 16t-78.5 -16t-63.5 -44t-42.5 -65.5t-15.5 -79.5zM403 657q0 8 6 14t14 6t14 -6t6 -14q0 -23 -9 -46t-24 -42t-35 -30.5t-43 -11.5q-17 0 -29 5.5t-21 13.5t-15.5 18t-12.5 19q-6 8 -12 18t-15 18.5t-20.5 14.5t-27.5 6q-15 0 -26 -9t-18.5 -23t-11.5 -30.5t-4 -31.5
q0 -8 -6 -14t-14 -6t-14 6t-6 14q0 23 7 46.5t20 42t31.5 30.5t41.5 12q21 0 36.5 -5.5t26.5 -14.5t18.5 -20t14.5 -21q4 -7 9 -15.5t12 -16.5t15.5 -13.5t20.5 -5.5q16 0 29 8.5t22 22t14.5 30t5.5 31.5z" />
    <glyph glyph-name="odieresis" unicode="&#xf6;" horiz-adv-x="524" 
d="M22 242q0 50 19 94t52 77t77 52t94 19t94 -19t77 -52t52 -77t19 -94t-19 -94t-52 -77t-77 -52t-94 -19t-94 19t-77 52t-52 77t-19 94zM64 242q0 -42 15.5 -79.5t42.5 -65.5t63.5 -44t78.5 -16t78.5 16t63.5 44t42.5 65.5t15.5 79.5t-15.5 79.5t-42.5 65.5t-63.5 44
t-78.5 16t-78.5 -16t-63.5 -44t-42.5 -65.5t-15.5 -79.5zM163 596q0 12 8 20.5t20 8.5t20.5 -8.5t8.5 -20.5t-8.5 -20t-20.5 -8t-20 8t-8 20zM303 596q0 12 8 20.5t20 8.5t20.5 -8.5t8.5 -20.5t-8.5 -20t-20.5 -8t-20 8t-8 20z" />
    <glyph glyph-name="ugrave" unicode="&#xf9;" horiz-adv-x="554" 
d="M480 128q-7 -19 -26.5 -41t-48.5 -41.5t-65.5 -32.5t-77.5 -13q-50 0 -91.5 19t-71.5 51.5t-46.5 76.5t-16.5 94v221q0 9 5.5 15t14.5 6t14.5 -6t5.5 -15v-220q0 -42 13 -79.5t37.5 -65.5t59 -44t76.5 -16q41 0 80.5 17t70 45.5t49 66t18.5 78.5v218q0 9 5.5 15t14.5 6
t14.5 -6t5.5 -15v-451q0 -11 -11 -11q-15 0 -22 17t-7 55v56zM221 605q10 11 22 9.5t18 -7.5q18 -20 27 -33t12 -21.5t1.5 -13.5t-4.5 -9q-3 -3 -7.5 -4.5t-12 1.5t-20.5 11.5t-34 25.5q-7 6 -10 17.5t8 23.5z" />
    <glyph glyph-name="uacute" unicode="&#xfa;" horiz-adv-x="526" 
d="M464 128q-7 -19 -26.5 -41t-48.5 -41.5t-65.5 -32.5t-77.5 -13q-50 0 -91.5 19t-71.5 51.5t-46.5 76.5t-16.5 94v221q0 9 5.5 15t14.5 6t14.5 -6t5.5 -15v-220q0 -42 13 -79.5t37.5 -65.5t59 -44t76.5 -16q41 0 80.5 17t70 45.5t49 66t18.5 78.5v218q0 9 5.5 15t14.5 6
t14.5 -6t5.5 -15v-451q0 -11 -11 -11q-15 0 -22 17t-7 55v56zM342 605q11 -12 8 -23.5t-10 -17.5q-21 -17 -34 -25.5t-20.5 -11.5t-12 -1.5t-7.5 4.5q-3 4 -4.5 9t1.5 13.5t12 21.5t27 33q6 6 18 7.5t22 -9.5z" />
    <glyph glyph-name="udieresis" unicode="&#xfc;" horiz-adv-x="551" 
d="M478 128q-7 -19 -26.5 -41t-48.5 -41.5t-65.5 -32.5t-77.5 -13q-50 0 -91.5 19t-71.5 51.5t-46.5 76.5t-16.5 94v221q0 9 5.5 15t14.5 6t14.5 -6t5.5 -15v-220q0 -42 13 -79.5t37.5 -65.5t59 -44t76.5 -16q41 0 80.5 17t70 45.5t49 66t18.5 78.5v218q0 9 5.5 15t14.5 6
t14.5 -6t5.5 -15v-451q0 -11 -11 -11q-15 0 -22 17t-7 55v56zM177 597q0 12 8 20.5t20 8.5t20.5 -8.5t8.5 -20.5t-8.5 -20t-20.5 -8t-20 8t-8 20zM317 597q0 12 8 20.5t20 8.5t20.5 -8.5t8.5 -20.5t-8.5 -20t-20.5 -8t-20 8t-8 20z" />
    <glyph glyph-name="yacute" unicode="&#xfd;" horiz-adv-x="554" 
d="M200 -160q4 8 12 10.5t16 -1.5q38 -11 71 -11q37 0 70 12t58 35t39 56.5t14 76.5v109q-9 -25 -29.5 -48t-49 -41t-62.5 -28.5t-71 -10.5q-50 0 -92.5 19t-73.5 52t-48.5 77t-17.5 94v220q0 22 21 22t21 -22v-220q0 -42 13.5 -79.5t38.5 -65.5t60 -44t77 -16t80.5 16
t67.5 44t46 65.5t17 79.5v66v154q0 22 21 22t21 -22v-417v-2v-24q0 -49 -16.5 -89.5t-46 -69t-70.5 -44.5t-89 -16q-20 0 -40 2.5t-42 8.5q-13 4 -16.5 13t0.5 17zM363 606q11 -12 8 -23.5t-10 -17.5q-21 -17 -34 -25.5t-20.5 -11.5t-12 -1.5t-7.5 4.5q-3 4 -4.5 9t1.5 13.5
t12 21.5t27 33q6 6 18 7.5t22 -9.5z" />
    <glyph glyph-name="ydieresis" unicode="&#xff;" horiz-adv-x="554" 
d="M199 -160q4 8 12 10.5t16 -1.5q38 -11 71 -11q37 0 70 12t58 35t39 56.5t14 76.5v109q-9 -25 -29.5 -48t-49 -41t-62.5 -28.5t-71 -10.5q-50 0 -92.5 19t-73.5 52t-48.5 77t-17.5 94v220q0 22 21 22t21 -22v-220q0 -42 13.5 -79.5t38.5 -65.5t60 -44t77 -16t80.5 16
t67.5 44t46 65.5t17 79.5v66v154q0 22 21 22t21 -22v-417v-2v-24q0 -49 -16.5 -89.5t-46 -69t-70.5 -44.5t-89 -16q-20 0 -40 2.5t-42 8.5q-13 4 -16.5 13t0.5 17zM188 596q0 12 8 20.5t20 8.5t20.5 -8.5t8.5 -20.5t-8.5 -20t-20.5 -8t-20 8t-8 20zM328 596q0 12 8 20.5
t20 8.5t20.5 -8.5t8.5 -20.5t-8.5 -20t-20.5 -8t-20 8t-8 20z" />
    <glyph glyph-name="C" unicode="C" horiz-adv-x="611" 
d="M549 493q-45 49 -95 72.5t-113 23.5q-57 0 -107 -21.5t-87.5 -59t-59 -87.5t-21.5 -107t21.5 -107t59 -87.5t87.5 -59t107 -21.5q63 0 116.5 25.5t91.5 70.5q5 6 9 7.5t8 1.5q8 0 14 -6t6 -13q0 -9 -8 -17q-26 -28 -51.5 -48.5t-53 -34t-60 -20t-72.5 -6.5
q-65 0 -122.5 24.5t-100.5 67.5t-67.5 100.5t-24.5 122.5t24.5 122.5t67.5 100t100.5 67.5t122.5 25q40 0 72.5 -7t60.5 -21t53.5 -34.5t52.5 -48.5q6 -6 6 -14t-6 -14t-14 -6q-9 0 -17 9z" />
    <glyph glyph-name="D" unicode="D" horiz-adv-x="595" 
d="M60 0q-8 0 -14 6t-6 14v591q0 4 -1 7.5t0 6.5t5 4.5t14 1.5h4h157q65 0 122.5 -25t100.5 -68t68 -100.5t25 -122.5t-25 -122.5t-68 -100.5t-100.5 -67.5t-122.5 -24.5h-159zM495 315q0 57 -22 107t-59.5 87.5t-87.5 59.5t-107 22h-139v-551h139q57 0 107 21.5t87.5 59
t59.5 87.5t22 107z" />
    <glyph glyph-name="E" unicode="E" horiz-adv-x="476" 
d="M474 20q0 -8 -6 -14t-14 -6h-395q-8 0 -13 6t-5 14v584q0 4 -1.5 8.5t-1.5 8.5t2.5 7t10.5 3h403q8 0 14 -6t6 -14t-6 -14t-14 -6h-373v-285h308q8 0 14 -6t6 -14t-6 -14t-14 -6h-308v-226h373q8 0 14 -6t6 -14z" />
    <glyph glyph-name="F" unicode="F" horiz-adv-x="459" 
d="M393 286q0 -8 -6 -14t-14 -6h-295v-246q0 -8 -6 -14t-14 -6t-14 6t-6 14v584q0 4 -1.5 8.5t-1.5 8.5t2.5 7t10.5 3h391q8 0 14 -6t6 -14t-6 -14t-14 -6h-361v-285h295q8 0 14 -6t6 -14z" />
    <glyph glyph-name="H" unicode="H" horiz-adv-x="565" 
d="M527 20q0 -8 -6 -14t-14 -6t-14 6t-6 14v273h-408v-273q0 -8 -6 -14t-14 -6t-14 6t-6 14v591q0 4 -1 7.5t0 6.5t5 4.5t14 1.5q11 0 16.5 -6t5.5 -14v-278h408v278q0 4 -1 7.5t0 6.5t5 4.5t14 1.5q11 0 16.5 -6t5.5 -14v-591z" />
    <glyph glyph-name="I" unicode="I" horiz-adv-x="115" 
d="M83 20q0 -8 -6 -14t-14 -6t-14 6t-6 14v590q0 4 -1 7.5t0 6.5t5 4.5t14 1.5q11 0 16.5 -6t5.5 -14v-590z" />
    <glyph glyph-name="J" unicode="J" horiz-adv-x="116" 
d="M-87 -134q0 8 6 14t16 6q49 2 76 40t27 94v590l-1 11q0 4 3.5 6.5t15.5 2.5q11 0 16.5 -6t5.5 -14v-590q0 -37 -10 -68.5t-28.5 -55t-45.5 -37t-61 -13.5q-8 0 -14 6t-6 14z" />
    <glyph glyph-name="K" unicode="K" horiz-adv-x="544" 
d="M80 281l416 344q7 5 15 4.5t13 -7.5q6 -6 5.5 -14.5t-8.5 -13.5l-230 -191l235 -372q5 -8 3.5 -15.5t-9.5 -12.5q-17 -10 -28 8l-233 365l-179 -149v-207q0 -8 -6 -14t-14 -6t-14 6t-6 14v590q0 4 -1 7.5t0 6.5t5 4.5t14 1.5q11 0 16.5 -6t5.5 -14v-329z" />
    <glyph glyph-name="L" unicode="L" horiz-adv-x="481" 
d="M481 20q0 -8 -6 -14t-14 -6h-405q-8 0 -13 6t-5 14v590q0 4 -1 7.5t0 6.5t5 4.5t14 1.5q11 0 16.5 -6t5.5 -14v-570h383q8 0 14 -6t6 -14z" />
    <glyph glyph-name="M" unicode="M" horiz-adv-x="660" 
d="M81 556v-536q0 -8 -6 -14t-14 -6t-14 6t-6 14v592l-1 11q0 4 1.5 6t17.5 2h5q11 0 12.5 -2t4.5 -7l252 -327l248 324l6 9t14 3q15 0 18.5 -5.5t3.5 -13.5v-592q0 -8 -6 -14t-14 -6t-14 6t-6 14v534q-55 -71 -114 -144.5t-111 -145.5q-3 -4 -9.5 -9t-15.5 -5
q-10 0 -16 4.5t-10 9.5z" />
    <glyph glyph-name="N" unicode="N" horiz-adv-x="634" 
d="M591 20q0 -8 -6 -14t-14 -6t-12 3t-8 8l-471 545v-536q0 -8 -6 -14t-14 -6t-14 6t-6 14v592q0 4 -1 7.5t-0.5 6t4.5 4t15 1.5q6 0 10.5 -4.5l11.5 -11.5l4.5 -4.5t20 -21.5t45.5 -51.5t82 -95t130 -152t189 -221.5v543q0 4 -1.5 7.5t-1 6t5 4t15.5 1.5q16 0 19 -5.5
t3 -13.5v-592z" />
    <glyph glyph-name="R" unicode="R" horiz-adv-x="469" 
d="M443 387q0 -77 -40.5 -132t-106.5 -81l143 -139q5 -5 6 -14t-5 -14t-14 -5.5t-15 5.5l-160 153q-30 -6 -62 -6h-110v-134q0 -8 -6 -14t-14 -6t-14 6t-6 14v591q0 4 -1 7.5t0 6.5t5 4.5t14 1.5h132q52 0 98.5 -18.5t81 -51t54.5 -77.5t20 -97zM403 387q0 44 -17 81.5
t-46 64.5t-68 42.5t-83 15.5h-110v-397h110q44 0 83 13.5t68 38.5t46 61t17 80z" />
    <glyph glyph-name="S" unicode="S" horiz-adv-x="451" 
d="M370 503q-30 44 -63.5 64.5t-84.5 21.5q-26 0 -51.5 -8t-45.5 -23t-33 -36.5t-13 -46.5q0 -27 14.5 -46.5t36 -34.5t46.5 -25.5t47 -17.5q34 -12 69 -27.5t64.5 -37t48 -50.5t19.5 -66q1 -36 -14.5 -67t-43.5 -54t-66 -36t-83 -13q-36 0 -67 8.5t-56.5 23.5t-43 34.5
t-26.5 40.5q-5 11 -5.5 19t7.5 13q7 5 15.5 3t11.5 -10q7 -18 21.5 -34.5t35.5 -29.5t48 -21.5t59 -8.5q31 0 61 9t54 26t38.5 42t13.5 55q-1 27 -16.5 49.5t-39 40t-51.5 30.5t-54 21q-38 12 -71 26.5t-58.5 33.5t-40 44.5t-14.5 59.5t16 62.5t41.5 48.5t58.5 31.5t67 11.5
q35 0 62.5 -9t49.5 -23.5t39 -33.5t30 -40q5 -7 2.5 -14t-9.5 -12t-14 -3t-12 9z" />
    <glyph glyph-name="T" unicode="T" horiz-adv-x="504" 
d="M499 611q0 -8 -6 -14t-14 -6h-207v-571q0 -8 -6 -14t-14 -6t-14 6t-6 14v571h-207q-8 0 -14 6t-6 14t6 14t14 6h454q8 0 14 -6t6 -14z" />
    <glyph glyph-name="U" unicode="U" horiz-adv-x="566" 
d="M39 610q0 4 -1 7.5t0 6.5t5 4.5t14 1.5q11 0 16.5 -6t5.5 -14v-366v-2q0 -42 16 -79t43.5 -64.5t64.5 -43t79 -15.5t79 15.5t64.5 43t44 64.5t16.5 79v2v366q0 4 -1 7.5t0 6.5t5 4.5t14 1.5q11 0 16.5 -6t5.5 -14v-366v-1q0 -51 -19 -95t-52 -77t-77.5 -52t-95.5 -19
t-95 19t-77 52t-52 77t-19 95v367z" />
    <glyph glyph-name="V" unicode="V" horiz-adv-x="504" 
d="M474 631q8 -3 11.5 -10.5t0.5 -15.5l-213 -587q-7 -18 -19 -18q-10 0 -14.5 6t-6.5 12l-214 586q-4 9 0.5 16t10.5 9q9 4 16.5 0.5t10.5 -11.5l196 -542l195 543q3 8 11.5 11t14.5 1z" />
    <glyph glyph-name="W" unicode="W" horiz-adv-x="775" 
d="M756 631q8 -3 11.5 -10.5t0.5 -15.5l-213 -587q-7 -18 -19 -18q-10 0 -14.5 6t-6.5 12l-130 362l-129 -362q-7 -18 -19 -18q-10 0 -14.5 6t-6.5 12l-214 586q-4 9 0.5 16t10.5 9q9 4 16.5 0.5t10.5 -11.5l196 -546l128 360q2 8 7 14.5t14 6.5t13.5 -6.5t7.5 -14.5
l129 -360l195 547q3 8 11.5 11t14.5 1z" />
    <glyph glyph-name="X" unicode="X" horiz-adv-x="677" 
d="M28 625q6 6 14.5 6t14.5 -6l281 -286l281 286q6 6 14.5 6t14.5 -6q5 -5 5.5 -13.5t-5.5 -14.5l-286 -282l285 -281q14 -14 0 -28q-6 -6 -14 -6t-14 6l-281 285l-281 -285q-6 -6 -14 -6t-14 6t-6 14t6 14l285 281l-286 282q-6 6 -5.5 14.5t5.5 13.5z" />
    <glyph glyph-name="Y" unicode="Y" horiz-adv-x="589" 
d="M569 625q6 -5 6 -13.5t-6 -14.5l-255 -255v-322q0 -8 -6 -14t-14 -6t-14 6t-6 14v322l-255 255q-6 6 -6 14.5t6 13.5q14 14 28 0l247 -246l247 246q14 14 28 0z" />
    <glyph glyph-name="Z" unicode="Z" horiz-adv-x="523" 
d="M510 611q0 -8 -5 -14l-438 -564l423 7q8 0 14 -6t6 -14t-6 -14t-14 -6h-448q-10 0 -17.5 2t-9.5 12q-2 7 0.5 13.5t6.5 11.5l434 557l-422 -5q-8 0 -14 6t-6 14t6 14t14 6h456q8 0 14 -6t6 -14z" />
    <glyph glyph-name="Egrave" unicode="&#xc8;" horiz-adv-x="481" 
d="M472 20q0 -8 -6 -14t-14 -6h-395q-8 0 -13 6t-5 14v584q0 4 -1.5 8.5t-1.5 8.5t2.5 7t10.5 3h403q8 0 14 -6t6 -14t-6 -14t-14 -6h-373v-285h308q8 0 14 -6t6 -14t-6 -14t-14 -6h-308v-226h373q8 0 14 -6t6 -14zM196 743q10 11 22 9.5t18 -7.5q18 -20 27 -33t12 -21.5
t1.5 -13.5t-4.5 -9q-3 -3 -7.5 -4.5t-12 1.5t-20.5 11.5t-34 25.5q-7 6 -10 17.5t8 23.5z" />
    <glyph glyph-name="Eacute" unicode="&#xc9;" horiz-adv-x="481" 
d="M472 20q0 -8 -6 -14t-14 -6h-395q-8 0 -13 6t-5 14v584q0 4 -1.5 8.5t-1.5 8.5t2.5 7t10.5 3h403q8 0 14 -6t6 -14t-6 -14t-14 -6h-373v-285h308q8 0 14 -6t6 -14t-6 -14t-14 -6h-308v-226h373q8 0 14 -6t6 -14zM317 744q11 -12 8 -23.5t-10 -17.5q-21 -17 -34 -25.5
t-20.5 -11.5t-12 -1.5t-7.5 4.5q-3 4 -4.5 9t1.5 13.5t12 21.5t27 33q6 6 18 7.5t22 -9.5z" />
    <glyph glyph-name="Edieresis" unicode="&#xcb;" horiz-adv-x="478" 
d="M471 20q0 -8 -6 -14t-14 -6h-395q-8 0 -13 6t-5 14v584q0 4 -1.5 8.5t-1.5 8.5t2.5 7t10.5 3h403q8 0 14 -6t6 -14t-6 -14t-14 -6h-373v-285h308q8 0 14 -6t6 -14t-6 -14t-14 -6h-308v-226h373q8 0 14 -6t6 -14zM155 721q0 12 8 20.5t20 8.5t20.5 -8.5t8.5 -20.5
t-8.5 -20t-20.5 -8t-20 8t-8 20zM295 721q0 12 8 20.5t20 8.5t20.5 -8.5t8.5 -20.5t-8.5 -20t-20.5 -8t-20 8t-8 20z" />
    <glyph glyph-name="Igrave" unicode="&#xcc;" horiz-adv-x="121" 
d="M85 20q0 -8 -6 -14t-14 -6t-14 6t-6 14v590q0 4 -1 7.5t0 6.5t5 4.5t14 1.5q11 0 16.5 -6t5.5 -14v-590zM-4 743q10 11 22 9.5t18 -7.5q18 -20 27 -33t12 -21.5t1.5 -13.5t-4.5 -9q-3 -3 -7.5 -4.5t-12 1.5t-20.5 11.5t-34 25.5q-7 6 -10 17.5t8 23.5z" />
    <glyph glyph-name="Iacute" unicode="&#xcd;" horiz-adv-x="119" 
d="M83 20q0 -8 -6 -14t-14 -6t-14 6t-6 14v590q0 4 -1 7.5t0 6.5t5 4.5t14 1.5q11 0 16.5 -6t5.5 -14v-590zM129 743q11 -12 8 -23.5t-10 -17.5q-21 -17 -34 -25.5t-20.5 -11.5t-12 -1.5t-7.5 4.5q-3 4 -4.5 9t1.5 13.5t12 21.5t27 33q6 6 18 7.5t22 -9.5z" />
    <glyph glyph-name="Idieresis" unicode="&#xcf;" horiz-adv-x="119" 
d="M87 20q0 -8 -6 -14t-14 -6t-14 6t-6 14v590q0 4 -1 7.5t0 6.5t5 4.5t14 1.5q11 0 16.5 -6t5.5 -14v-590zM-36 722q0 12 8 20.5t20 8.5t20.5 -8.5t8.5 -20.5t-8.5 -20t-20.5 -8t-20 8t-8 20zM104 722q0 12 8 20.5t20 8.5t20.5 -8.5t8.5 -20.5t-8.5 -20t-20.5 -8t-20 8
t-8 20z" />
    <glyph glyph-name="Ugrave" unicode="&#xd9;" horiz-adv-x="565" 
d="M40 610q0 4 -1 7.5t0 6.5t5 4.5t14 1.5q11 0 16.5 -6t5.5 -14v-366v-2q0 -42 16 -79t43.5 -64.5t64.5 -43t79 -15.5t79 15.5t64.5 43t44 64.5t16.5 79v2v366q0 4 -1 7.5t0 6.5t5 4.5t14 1.5q11 0 16.5 -6t5.5 -14v-366v-1q0 -51 -19 -95t-52 -77t-77.5 -52t-95.5 -19
t-95 19t-77 52t-52 77t-19 95v367zM231 744q10 11 22 9.5t18 -7.5q18 -20 27 -33t12 -21.5t1.5 -13.5t-4.5 -9q-3 -3 -7.5 -4.5t-12 1.5t-20.5 11.5t-34 25.5q-7 6 -10 17.5t8 23.5z" />
    <glyph glyph-name="Uacute" unicode="&#xda;" horiz-adv-x="525" 
d="M24 610q0 4 -1 7.5t0 6.5t5 4.5t14 1.5q11 0 16.5 -6t5.5 -14v-366v-2q0 -42 16 -79t43.5 -64.5t64.5 -43t79 -15.5t79 15.5t64.5 43t44 64.5t16.5 79v2v366q0 4 -1 7.5t0 6.5t5 4.5t14 1.5q11 0 16.5 -6t5.5 -14v-366v-1q0 -51 -19 -95t-52 -77t-77.5 -52t-95.5 -19
t-95 19t-77 52t-52 77t-19 95v367zM342 743q11 -12 8 -23.5t-10 -17.5q-21 -17 -34 -25.5t-20.5 -11.5t-12 -1.5t-7.5 4.5q-3 4 -4.5 9t1.5 13.5t12 21.5t27 33q6 6 18 7.5t22 -9.5z" />
    <glyph glyph-name="ntilde" unicode="&#xf1;" horiz-adv-x="552" 
d="M76 355q7 19 26.5 41t48.5 41.5t65.5 32.5t77.5 13q50 0 91.5 -19t71.5 -51.5t46.5 -76.5t16.5 -94v-221q0 -9 -5.5 -15t-14.5 -6t-14.5 6t-5.5 15v220q0 42 -13 79.5t-37.5 65.5t-59 44t-76.5 16q-41 0 -80.5 -17t-70 -45.5t-49 -66t-18.5 -78.5v-218q0 -9 -5.5 -15
t-14.5 -6t-14.5 6t-5.5 15v451q0 11 11 11q15 0 22 -17t7 -55v-56zM423 656q0 8 6 14t14 6t14 -6t6 -14q0 -23 -9 -46t-24 -42t-35 -30.5t-43 -11.5q-17 0 -29 5.5t-21 13.5t-15.5 18t-12.5 19q-6 8 -12 18t-15 18.5t-20.5 14.5t-27.5 6q-15 0 -26 -9t-18.5 -23t-11.5 -30.5
t-4 -31.5q0 -8 -6 -14t-14 -6t-14 6t-6 14q0 23 7 46.5t20 42t31.5 30.5t41.5 12q21 0 36.5 -5.5t26.5 -14.5t18.5 -20t14.5 -21q4 -7 9 -15.5t12 -16.5t15.5 -13.5t20.5 -5.5q16 0 29 8.5t22 22t14.5 30t5.5 31.5z" />
    <glyph glyph-name="Yacute" unicode="&#xdd;" horiz-adv-x="578" 
d="M568 625q6 -5 6 -13.5t-6 -14.5l-255 -255v-322q0 -8 -6 -14t-14 -6t-14 6t-6 14v322l-255 255q-6 6 -6 14.5t6 13.5q14 14 28 0l247 -246l247 246q14 14 28 0zM367 743q11 -12 8 -23.5t-10 -17.5q-21 -17 -34 -25.5t-20.5 -11.5t-12 -1.5t-7.5 4.5q-3 4 -4.5 9t1.5 13.5
t12 21.5t27 33q6 6 18 7.5t22 -9.5z" />
    <glyph glyph-name="numbersign" unicode="#" horiz-adv-x="636" 
d="M581 215q0 -8 -6 -14t-14 -6h-160q-10 -45 -19.5 -89t-19.5 -89q-2 -8 -9 -13t-15 -3t-12.5 8.5t-2.5 14.5l37 171h-133l-40 -179q-2 -8 -9 -12.5t-15 -2.5t-12.5 8.5t-2.5 14.5l37 171h-156q-8 0 -14 6t-6 14t6 14t14 6h165l40 179h-159q-8 0 -14 6t-6 14t6 14t14 6h168
l37 168q2 8 9 12.5t15 2.5t13 -8.5t3 -14.5l-36 -160h134l37 168q2 8 9 12.5t15 2.5q19 -4 16 -22q-9 -41 -18 -81l-18 -80h148q8 0 14 -6t6 -14t-6 -14t-14 -6h-157q-10 -45 -19.5 -89.5t-20.5 -89.5h151q8 0 14 -6t6 -14zM236 235h133l40 179h-134z" />
    <glyph glyph-name="Ydieresis" unicode="&#x178;" horiz-adv-x="565" 
d="M559 625q6 -5 6 -13.5t-6 -14.5l-255 -255v-322q0 -8 -6 -14t-14 -6t-14 6t-6 14v322l-255 255q-6 6 -6 14.5t6 13.5q14 14 28 0l247 -246l247 246q14 14 28 0zM185 722q0 12 8 20.5t20 8.5t20.5 -8.5t8.5 -20.5t-8.5 -20t-20.5 -8t-20 8t-8 20zM325 722q0 12 8 20.5
t20 8.5t20.5 -8.5t8.5 -20.5t-8.5 -20t-20.5 -8t-20 8t-8 20z" />
    <glyph glyph-name="endash" unicode="&#x2013;" horiz-adv-x="466" 
d="M427 302q0 -8 -6 -14t-14 -6h-348q-8 0 -14 6t-6 14t6 14t14 6h348q8 0 14 -6t6 -14z" />
    <glyph glyph-name="emdash" unicode="&#x2014;" horiz-adv-x="548" 
d="M509 302q0 -8 -6 -14t-14 -6h-430q-8 0 -14 6t-6 14t6 14t14 6h430q8 0 14 -6t6 -14z" />
    <glyph glyph-name="underscore" unicode="_" horiz-adv-x="456" 
d="M417 20q0 -8 -6 -14t-14 -6h-338q-8 0 -14 6t-6 14t6 14t14 6h338q8 0 14 -6t6 -14z" />
    <glyph glyph-name="brokenbar" unicode="&#xa6;" horiz-adv-x="127" 
d="M60 637q8 0 14 -6t6 -14v-333q0 -8 -6 -14t-14 -6t-14 6t-6 14v333q0 8 6 14t14 6zM60 223q8 0 14 -6t6 -14v-333q0 -8 -6 -14t-14 -6t-14 6t-6 14v333q0 8 6 14t14 6z" />
    <glyph glyph-name="oe" unicode="&#x153;" horiz-adv-x="977" 
d="M26 252q0 50 19 94t52 77t77 52t94 19t94 -19t77 -52t52 -77t19 -94t-19 -94t-52 -77t-77 -52t-94 -19t-94 19t-77 52t-52 77t-19 94zM68 252q0 -42 15.5 -79.5t42.5 -65.5t63.5 -44t78.5 -16t78.5 16t63.5 44t42.5 65.5t15.5 79.5t-15.5 79.5t-42.5 65.5t-63.5 44
t-78.5 16t-78.5 -16t-63.5 -44t-42.5 -65.5t-15.5 -79.5zM709 0q-50 0 -94 19t-77 51.5t-52 76.5t-19 94q0 56 20 101t54.5 76.5t80 48.5t95.5 17t93 -18.5t74.5 -51t49.5 -76.5t18 -95q0 -8 -6 -14t-17 -6h-420q3 -39 20 -73t43.5 -59t61.5 -39.5t75 -14.5q37 0 73 13.5
t62 39.5q6 6 15 6t15 -6q5 -6 6 -14.5t-6 -15.5q-12 -10 -28.5 -20.5t-37 -19.5t-45.5 -14.5t-54 -5.5zM717 447q-40 0 -76 -14.5t-64 -39.5t-45.5 -59t-21.5 -73h401q-3 39 -18.5 73t-41 59t-60 39.5t-74.5 14.5z" />
    <glyph glyph-name="divide" unicode="&#xf7;" horiz-adv-x="379" 
d="M378 321q0 -8 -6 -14t-14 -6h-338q-8 0 -14 6t-6 14t6 14t14 6h338q8 0 14 -6t6 -14zM167 477q0 10 6.5 16.5t16.5 6.5t16.5 -6.5t6.5 -16.5t-6.5 -16.5t-16.5 -6.5t-16.5 6.5t-6.5 16.5zM167 170q0 10 6.5 16.5t16.5 6.5t16.5 -6.5t6.5 -16.5t-6.5 -16.5t-16.5 -6.5
t-16.5 6.5t-6.5 16.5z" />
    <glyph glyph-name="periodcentered" unicode="&#xb7;" horiz-adv-x="98" 
d="M20 315q0 12 8 20.5t20 8.5t20.5 -8.5t8.5 -20.5t-8.5 -20t-20.5 -8t-20 8t-8 20z" />
    <glyph glyph-name="space" unicode=" " horiz-adv-x="225" 
 />
    <glyph glyph-name="guillemotright" unicode="&#xbb;" horiz-adv-x="481" 
d="M41 5q-5 6 -5 14.5t5 14.5l221 208l-220 208q-5 6 -5 14.5t5 14.5q6 5 14.5 5t14.5 -5l219 -219q4 -4 7 -7.5t3 -11.5q0 -6 -2.5 -9t-7.5 -8l-220 -219q-6 -5 -14.5 -5t-14.5 5zM211 5q-5 6 -5 14.5t5 14.5l221 208l-220 208q-5 6 -5 14.5t5 14.5q6 5 14.5 5t14.5 -5
l219 -219q4 -4 7 -7.5t3 -11.5q0 -6 -2.5 -9t-7.5 -8l-220 -219q-6 -5 -14.5 -5t-14.5 5z" />
    <glyph glyph-name="oslash" unicode="&#xf8;" horiz-adv-x="522" 
d="M19 242q0 50 19 94t52 77t77 52t94 19q35 0 70 -11l30 76q3 8 10.5 11t15.5 0t11 -10.5t1 -15.5l-30 -76q60 -29 97 -86.5t37 -129.5q0 -50 -19 -94t-52 -77t-77 -52t-94 -19q-40 0 -71 10l-29 -72q-3 -8 -10.5 -10.5t-15.5 0.5t-10.5 10.5t-0.5 15.5l29 71
q-60 30 -97 87.5t-37 129.5zM61 242q0 -42 15.5 -79.5t42.5 -65.5t63.5 -44t78.5 -16t78.5 16t63.5 44t42.5 65.5t15.5 79.5t-15.5 79.5t-42.5 65.5t-63.5 44t-78.5 16t-78.5 -16t-63.5 -44t-42.5 -65.5t-15.5 -79.5z" />
    <glyph glyph-name="daggerdbl" unicode="&#x2021;" horiz-adv-x="394" 
d="M391 231q0 -8 -6 -14t-14 -6l-157 3l3 -327q0 -8 -6 -14t-14 -6t-14 6t-6 14l2 327l-156 -3q-8 0 -14 6t-6 14t6 14t14 6l157 -3v116l-157 -3q-8 0 -14 6t-6 14t6 14t14 6l157 -3l-3 219q0 8 6 14t14 6t14 -6t6 -14l-3 -219l157 3q8 0 14 -6t6 -14t-6 -14t-14 -6l-157 3
v-116l157 3q8 0 14 -6t6 -14z" />
    <glyph glyph-name="dagger" unicode="&#x2020;" horiz-adv-x="393" 
d="M391 381q0 -8 -6 -14t-14 -6l-158 3l3 -477q0 -8 -6 -14t-14 -6t-14 6t-6 14l3 477l-157 -3q-8 0 -14 6t-6 14t6 14t14 6l157 -3l-3 219q0 8 6 14t14 6t14 -6t6 -14l-3 -219l158 3q8 0 14 -6t6 -14z" />
    <glyph glyph-name="ellipsis" unicode="&#x2026;" horiz-adv-x="249" 
d="M22 23q0 10 6.5 16.5t16.5 6.5t16.5 -6.5t6.5 -16.5t-6.5 -16.5t-16.5 -6.5t-16.5 6.5t-6.5 16.5zM102 23q0 10 6.5 16.5t16.5 6.5t16.5 -6.5t6.5 -16.5t-6.5 -16.5t-16.5 -6.5t-16.5 6.5t-6.5 16.5zM182 23q0 10 6.5 16.5t16.5 6.5t16.5 -6.5t6.5 -16.5t-6.5 -16.5
t-16.5 -6.5t-16.5 6.5t-6.5 16.5z" />
    <glyph glyph-name="asciicircum" unicode="^" horiz-adv-x="393" 
d="M369 445q-6 -5 -14.5 -5t-14.5 5l-143 151l-144 -151q-6 -5 -14.5 -5t-14.5 5q-5 6 -5 14.5t5 14.5l155 154q4 4 7.5 7t11.5 3q6 0 9 -2.5t8 -7.5l154 -154q5 -6 5 -14.5t-5 -14.5z" />
    <glyph glyph-name="plusminus" unicode="&#xb1;" horiz-adv-x="382" 
d="M380 20q0 -8 -6 -14t-14 -6h-338q-8 0 -14 6t-6 14t6 14t14 6h338q8 0 14 -6t6 -14zM191 223q-8 0 -14 6t-6 14l2 151l-151 -2q-8 0 -14 6t-6 14t6 14t14 6l151 -2l-2 151q0 8 6 14t14 6t14 -6t6 -14l-2 -151l151 2q8 0 14 -6t6 -14t-6 -14t-14 -6l-151 2l2 -151
q0 -8 -6 -14t-14 -6z" />
    <glyph glyph-name="guilsinglright" unicode="&#x203a;" horiz-adv-x="299" 
d="M38 5q-5 6 -5 14.5t5 14.5l221 208l-220 208q-5 6 -5 14.5t5 14.5q6 5 14.5 5t14.5 -5l219 -219q4 -4 7 -7.5t3 -11.5q0 -6 -2.5 -9t-7.5 -8l-220 -219q-6 -5 -14.5 -5t-14.5 5z" />
    <glyph glyph-name="guilsinglleft" unicode="&#x2039;" horiz-adv-x="298" 
d="M261 5q-6 -5 -14.5 -5t-14.5 5l-220 219q-5 5 -7.5 8t-2.5 9q0 8 3 11.5t7 7.5l219 219q6 5 14.5 5t14.5 -5q5 -6 5 -14.5t-5 -14.5l-220 -208l221 -208q5 -6 5 -14.5t-5 -14.5z" />
    <glyph glyph-name="copyright" unicode="&#xa9;" horiz-adv-x="684" 
d="M27 315q0 65 24.5 122.5t67.5 100t100.5 67.5t122.5 25t122.5 -25t100 -67.5t67.5 -100t25 -122.5t-25 -122.5t-67.5 -100.5t-100 -67.5t-122.5 -24.5t-122.5 24.5t-100.5 67.5t-67.5 100.5t-24.5 122.5zM67 315q0 -57 21.5 -107t59 -87.5t87.5 -59t107 -21.5t107 21.5
t87.5 59t59 87.5t21.5 107t-21.5 107t-59 87.5t-87.5 59t-107 21.5t-107 -21.5t-87.5 -59t-59 -87.5t-21.5 -107zM448 442q-22 20 -49.5 30t-59.5 10q-35 0 -64.5 -13t-51 -35.5t-33.5 -53t-12 -64.5q0 -35 12 -65t33.5 -52.5t51 -35.5t64.5 -13q31 0 60 9.5t51 31.5
q5 5 13 6t13 -7q10 -12 -2 -24q-18 -18 -52.5 -33.5t-82.5 -15.5q-41 0 -77.5 15.5t-63.5 42.5t-42.5 63.5t-15.5 77.5t15.5 77.5t42.5 63.5t63.5 42.5t77.5 15.5q35 0 71.5 -11.5t62.5 -36.5q4 -5 4.5 -12.5t-4.5 -12.5t-12 -5q-6 0 -13 5z" />
    <glyph glyph-name="registered" unicode="&#xae;" horiz-adv-x="684" 
d="M27 315q0 65 24.5 122.5t67.5 100t100.5 67.5t122.5 25t122.5 -25t100 -67.5t67.5 -100t25 -122.5t-25 -122.5t-67.5 -100.5t-100 -67.5t-122.5 -24.5t-122.5 24.5t-100.5 67.5t-67.5 100.5t-24.5 122.5zM67 315q0 -57 21.5 -107t59 -87.5t87.5 -59t107 -21.5t107 21.5
t87.5 59t59 87.5t21.5 107t-21.5 107t-59 87.5t-87.5 59t-107 21.5t-107 -21.5t-87.5 -59t-59 -87.5t-21.5 -107zM320 407q4 16 16 33t29.5 31t38.5 22.5t44 8.5q8 0 14 -0.5t15 -3.5q19 -6 18 -24q-2 -9 -9 -12.5t-16 -1.5q-6 1 -8 1.5l-4 1t-5.5 0.5h-10.5
q-23 0 -45 -13.5t-39 -36.5t-27.5 -55.5t-10.5 -69.5v-158q0 -9 -5.5 -15t-14.5 -6t-14.5 6t-5.5 15v361q0 11 11 11q15 0 22 -17t7 -55v-23z" />
    <glyph glyph-name="ordmasculine" unicode="&#xba;" horiz-adv-x="435" 
d="M25 293q0 40 15 75t41.5 61.5t61.5 41.5t75 15t75 -15t61.5 -41.5t41.5 -61.5t15 -75t-15 -75t-41.5 -61.5t-61.5 -41.5t-75 -15t-75 15t-61.5 41.5t-41.5 61.5t-15 75zM412 20q0 -8 -6 -14t-14 -6h-349q-8 0 -14 6t-6 14t6 14t14 6h349q8 0 14 -6t6 -14zM65 293
q0 -32 12 -59.5t33 -48.5t48.5 -33t59.5 -12q31 0 59 12t49 33t33 48.5t12 59.5q0 31 -12 59t-33 49t-49 33t-59 12q-32 0 -59.5 -12t-48.5 -33t-33 -49t-12 -59z" />
    <glyph glyph-name="O" unicode="O" horiz-adv-x="684" 
d="M24 315q0 65 24.5 122.5t67.5 100t100.5 67.5t122.5 25t122.5 -25t100 -67.5t67.5 -100t25 -122.5t-25 -122.5t-67.5 -100.5t-100 -67.5t-122.5 -24.5t-122.5 24.5t-100.5 67.5t-67.5 100.5t-24.5 122.5zM64 315q0 -57 21.5 -107t59 -87.5t87.5 -59t107 -21.5t107 21.5
t87.5 59t59 87.5t21.5 107t-21.5 107t-59 87.5t-87.5 59t-107 21.5t-107 -21.5t-87.5 -59t-59 -87.5t-21.5 -107z" />
    <glyph glyph-name="P" unicode="P" horiz-adv-x="443" 
d="M443 387q0 -53 -20 -95.5t-54.5 -73.5t-81 -47.5t-98.5 -16.5h-110v-134q0 -8 -6 -14t-14 -6t-14 6t-6 14v591q0 4 -1 7.5t0 6.5t5 4.5t14 1.5h132q52 0 98.5 -18.5t81 -51t54.5 -77.5t20 -97zM403 387q0 44 -17 81.5t-46 64.5t-68 42.5t-83 15.5h-110v-397h110
q44 0 83 13.5t68 38.5t46 61t17 80z" />
    <glyph glyph-name="Q" unicode="Q" horiz-adv-x="672" 
d="M336 -118q-18 0 -18 18l-2 101q-62 4 -116 30t-93.5 68t-62.5 97.5t-23 118.5q0 65 24.5 122.5t67.5 100t100.5 67.5t122.5 25t122.5 -25t100 -67.5t67.5 -100t25 -122.5q0 -63 -23 -118.5t-63 -97.5t-94 -68t-115 -30l-2 -101q0 -18 -18 -18zM61 315q0 -57 21.5 -107
t59 -87.5t87.5 -59t107 -21.5t107 21.5t87.5 59t59 87.5t21.5 107t-21.5 107t-59 87.5t-87.5 59t-107 21.5t-107 -21.5t-87.5 -59t-59 -87.5t-21.5 -107z" />
    <glyph glyph-name="G" unicode="G" horiz-adv-x="657" 
d="M333 40q42 0 81.5 14.5t71.5 39.5t53.5 58.5t27.5 72.5h-173q-8 0 -14 6t-6 14t6 14t14 6h195h2q8 -1 13 -6.5t5 -13.5v-225q0 -8 -6 -14t-14 -6t-14 6t-6 14v115q-9 -26 -32 -50.5t-55 -43.5t-70.5 -30t-78.5 -11q-65 0 -121.5 24.5t-97.5 67.5t-64.5 100.5t-23.5 122.5
t24.5 122.5t67.5 100t100.5 67.5t122.5 25q40 0 72.5 -7t60.5 -21t53.5 -34.5t52.5 -48.5q6 -6 6 -14t-6 -14t-14 -6q-9 0 -17 9q-45 49 -95 72.5t-113 23.5q-57 0 -107 -21.5t-87.5 -59t-59 -87.5t-21.5 -107t20.5 -107t56 -87.5t84.5 -59t106 -21.5z" />
    <glyph glyph-name="b" unicode="b" 
d="M80 72q0 -38 -7 -55t-22 -17q-11 0 -11 11v605q0 8 6 14t14 6t14 -6t6 -14v-2v-259q7 19 25.5 41t46.5 41.5t63.5 32.5t76.5 13q50 0 92.5 -19t73.5 -52t48.5 -77t17.5 -94t-17.5 -94t-48.5 -77t-73.5 -52t-92.5 -19q-37 0 -71 10.5t-62.5 28.5t-49 41t-29.5 48v-55z
M481 241q0 42 -13.5 79.5t-38.5 65.5t-60 44t-77 16q-41 0 -79 -16.5t-67 -44.5t-46.5 -65.5t-17.5 -78.5q0 -42 17 -79.5t45.5 -65.5t67 -44t80.5 -16t77 16t60 44t38.5 65.5t13.5 79.5z" />
    <glyph glyph-name="Ograve" unicode="&#xd2;" horiz-adv-x="676" 
d="M22 315q0 65 24.5 122.5t67.5 100t100.5 67.5t122.5 25t122.5 -25t100 -67.5t67.5 -100t25 -122.5t-25 -122.5t-67.5 -100.5t-100 -67.5t-122.5 -24.5t-122.5 24.5t-100.5 67.5t-67.5 100.5t-24.5 122.5zM62 315q0 -57 21.5 -107t59 -87.5t87.5 -59t107 -21.5t107 21.5
t87.5 59t59 87.5t21.5 107t-21.5 107t-59 87.5t-87.5 59t-107 21.5t-107 -21.5t-87.5 -59t-59 -87.5t-21.5 -107zM273 743q10 11 22 9.5t18 -7.5q18 -20 27 -33t12 -21.5t1.5 -13.5t-4.5 -9q-3 -3 -7.5 -4.5t-12 1.5t-20.5 11.5t-34 25.5q-7 6 -10 17.5t8 23.5z" />
    <glyph glyph-name="Oacute" unicode="&#xd3;" horiz-adv-x="676" 
d="M22 315q0 65 24.5 122.5t67.5 100t100.5 67.5t122.5 25t122.5 -25t100 -67.5t67.5 -100t25 -122.5t-25 -122.5t-67.5 -100.5t-100 -67.5t-122.5 -24.5t-122.5 24.5t-100.5 67.5t-67.5 100.5t-24.5 122.5zM62 315q0 -57 21.5 -107t59 -87.5t87.5 -59t107 -21.5t107 21.5
t87.5 59t59 87.5t21.5 107t-21.5 107t-59 87.5t-87.5 59t-107 21.5t-107 -21.5t-87.5 -59t-59 -87.5t-21.5 -107zM407 743q11 -12 8 -23.5t-10 -17.5q-21 -17 -34 -25.5t-20.5 -11.5t-12 -1.5t-7.5 4.5q-3 4 -4.5 9t1.5 13.5t12 21.5t27 33q6 6 18 7.5t22 -9.5z" />
    <glyph glyph-name="Odieresis" unicode="&#xd6;" horiz-adv-x="676" 
d="M22 315q0 65 24.5 122.5t67.5 100t100.5 67.5t122.5 25t122.5 -25t100 -67.5t67.5 -100t25 -122.5t-25 -122.5t-67.5 -100.5t-100 -67.5t-122.5 -24.5t-122.5 24.5t-100.5 67.5t-67.5 100.5t-24.5 122.5zM62 315q0 -57 21.5 -107t59 -87.5t87.5 -59t107 -21.5t107 21.5
t87.5 59t59 87.5t21.5 107t-21.5 107t-59 87.5t-87.5 59t-107 21.5t-107 -21.5t-87.5 -59t-59 -87.5t-21.5 -107zM243 722q0 12 8 20.5t20 8.5t20.5 -8.5t8.5 -20.5t-8.5 -20t-20.5 -8t-20 8t-8 20zM383 722q0 12 8 20.5t20 8.5t20.5 -8.5t8.5 -20.5t-8.5 -20t-20.5 -8
t-20 8t-8 20z" />
    <glyph glyph-name="agrave" unicode="&#xe0;" horiz-adv-x="542" 
d="M469 127q-9 -24 -29.5 -47t-48.5 -41t-62.5 -29t-71.5 -11q-50 0 -92.5 19t-73.5 52t-48.5 77t-17.5 94t17.5 94t48.5 77t73.5 52t92.5 19q41 0 76.5 -13t63.5 -32.5t46.5 -41.5t25.5 -41v55q0 38 7 55t22 17q11 0 11 -11v-460q0 -11 -11 -11q-15 0 -22 17t-7 55v55z
M68 241q0 -42 13.5 -79.5t38.5 -65.5t60 -44t77 -16t80.5 16t67 44t45.5 65.5t17 79.5q0 41 -17.5 78.5t-46.5 65.5t-67 44.5t-79 16.5q-42 0 -77 -16t-60 -44t-38.5 -65.5t-13.5 -79.5zM188 605q10 11 22 9.5t18 -7.5q18 -20 27 -33t12 -21.5t1.5 -13.5t-4.5 -9
q-3 -3 -7.5 -4.5t-12 1.5t-20.5 11.5t-34 25.5q-7 6 -10 17.5t8 23.5z" />
    <glyph glyph-name="aacute" unicode="&#xe1;" horiz-adv-x="546" 
d="M469 127q-9 -24 -29.5 -47t-48.5 -41t-62.5 -29t-71.5 -11q-50 0 -92.5 19t-73.5 52t-48.5 77t-17.5 94t17.5 94t48.5 77t73.5 52t92.5 19q41 0 76.5 -13t63.5 -32.5t46.5 -41.5t25.5 -41v55q0 38 7 55t22 17q11 0 11 -11v-460q0 -11 -11 -11q-15 0 -22 17t-7 55v55z
M68 241q0 -42 13.5 -79.5t38.5 -65.5t60 -44t77 -16t80.5 16t67 44t45.5 65.5t17 79.5q0 41 -17.5 78.5t-46.5 65.5t-67 44.5t-79 16.5q-42 0 -77 -16t-60 -44t-38.5 -65.5t-13.5 -79.5zM337 605q11 -12 8 -23.5t-10 -17.5q-21 -17 -34 -25.5t-20.5 -11.5t-12 -1.5t-7.5 4.5
q-3 4 -4.5 9t1.5 13.5t12 21.5t27 33q6 6 18 7.5t22 -9.5z" />
    <glyph glyph-name="ae" unicode="&#xe6;" horiz-adv-x="944" 
d="M460 127q-9 -24 -29.5 -47t-48.5 -41t-62.5 -29t-71.5 -11q-50 0 -92.5 19t-73.5 52t-48.5 77t-17.5 94t17.5 94t48.5 77t73.5 52t92.5 19q41 0 76.5 -13t63.5 -32.5t46.5 -41.5t25.5 -41v55q0 38 7 55t22 17q11 0 11 -11v-460q0 -11 -11 -11q-15 0 -22 17t-7 55v55z
M59 241q0 -42 13.5 -79.5t38.5 -65.5t60 -44t77 -16t80.5 16t67 44t45.5 65.5t17 79.5q0 41 -17.5 78.5t-46.5 65.5t-67 44.5t-79 16.5q-42 0 -77 -16t-60 -44t-38.5 -65.5t-13.5 -79.5zM699 0q-50 0 -94 19t-77 51.5t-52 76.5t-19 94q0 56 20 101t54.5 76.5t80 48.5
t95.5 17t93 -18.5t74.5 -51t49.5 -76.5t18 -95q0 -8 -6 -14t-17 -6h-420q3 -39 20 -73t43.5 -59t61.5 -39.5t75 -14.5q37 0 73 13.5t62 39.5q6 6 15 6t15 -6q5 -6 6 -14.5t-6 -15.5q-12 -10 -28.5 -20.5t-37 -19.5t-45.5 -14.5t-54 -5.5zM707 447q-40 0 -76 -14.5t-64 -39.5
t-45.5 -59t-21.5 -73h401q-3 39 -18.5 73t-41 59t-60 39.5t-74.5 14.5z" />
    <glyph glyph-name="adieresis" unicode="&#xe4;" horiz-adv-x="542" 
d="M469 127q-9 -24 -29.5 -47t-48.5 -41t-62.5 -29t-71.5 -11q-50 0 -92.5 19t-73.5 52t-48.5 77t-17.5 94t17.5 94t48.5 77t73.5 52t92.5 19q41 0 76.5 -13t63.5 -32.5t46.5 -41.5t25.5 -41v55q0 38 7 55t22 17q11 0 11 -11v-460q0 -11 -11 -11q-15 0 -22 17t-7 55v55z
M68 241q0 -42 13.5 -79.5t38.5 -65.5t60 -44t77 -16t80.5 16t67 44t45.5 65.5t17 79.5q0 41 -17.5 78.5t-46.5 65.5t-67 44.5t-79 16.5q-42 0 -77 -16t-60 -44t-38.5 -65.5t-13.5 -79.5zM167 596q0 12 8 20.5t20 8.5t20.5 -8.5t8.5 -20.5t-8.5 -20t-20.5 -8t-20 8t-8 20z
M307 596q0 12 8 20.5t20 8.5t20.5 -8.5t8.5 -20.5t-8.5 -20t-20.5 -8t-20 8t-8 20z" />
    <glyph glyph-name="Udieresis" unicode="&#xdc;" horiz-adv-x="551" 
d="M37 610q0 4 -1 7.5t0 6.5t5 4.5t14 1.5q11 0 16.5 -6t5.5 -14v-366v-2q0 -42 16 -79t43.5 -64.5t64.5 -43t79 -15.5t79 15.5t64.5 43t44 64.5t16.5 79v2v366q0 4 -1 7.5t0 6.5t5 4.5t14 1.5q11 0 16.5 -6t5.5 -14v-366v-1q0 -51 -19 -95t-52 -77t-77.5 -52t-95.5 -19
t-95 19t-77 52t-52 77t-19 95v367zM184 723q0 12 8 20.5t20 8.5t20.5 -8.5t8.5 -20.5t-8.5 -20t-20.5 -8t-20 8t-8 20zM324 723q0 12 8 20.5t20 8.5t20.5 -8.5t8.5 -20.5t-8.5 -20t-20.5 -8t-20 8t-8 20z" />
    <glyph glyph-name="OE" unicode="&#x152;" horiz-adv-x="788" 
d="M344 0q-65 0 -122.5 24.5t-100.5 67.5t-67.5 100.5t-24.5 122.5t24.5 122.5t67.5 100t100.5 67.5t122.5 25h413q8 0 14 -6t6 -14t-6 -14t-14 -6h-373v-284h308q8 0 14 -6t6 -14t-6 -14t-14 -6h-308v-226h373q8 0 14 -6t6 -14t-6 -14t-14 -6h-413zM69 315q0 -57 21.5 -107
t59 -87.5t87.5 -59t107 -21.5v550q-57 0 -107 -21.5t-87.5 -59t-59 -87.5t-21.5 -107z" />
    <glyph glyph-name="zcaron" unicode="&#x17e;" horiz-adv-x="524" 
d="M378 646q6 -6 6 -16.5t-6 -15.5l-95 -83q-4 -3 -8 -5.5t-10 -2.5q-7 0 -11 3t-7 5l-94 83q-5 5 -6 14.5t7 17.5q7 7 16 5.5t15 -6.5l80 -77l82 77q6 5 15.5 6t15.5 -5zM35 463q0 8 5.5 14.5t13.5 6.5h415q8 0 13.5 -5.5t5.5 -13.5q0 -7 -7 -14l-401 -414l408 2q8 0 14 -6
t6 -14t-6 -13.5t-14 -5.5h-452q-8 0 -13 5t-5 13t7 15l400 413l-371 -2q-8 0 -13.5 5.5t-5.5 13.5z" />
    <glyph glyph-name="A" unicode="A" 
d="M264 631q6 0 12.5 -3t9.5 -10l231 -591q3 -8 -0.5 -15.5t-11.5 -10.5t-15.5 0.5t-10.5 11.5l-62 157h-300l-61 -157q-3 -8 -10.5 -11.5t-15.5 -0.5t-11.5 10.5t-0.5 15.5l228 584q1 4 0 7.5t0 6.5t4.5 4.5t13.5 1.5zM133 210h269l-135 343z" />
    <glyph glyph-name="guillemotleft" unicode="&#xab;" horiz-adv-x="481" 
d="M440 5q-6 -5 -14.5 -5t-14.5 5l-220 219q-5 5 -7.5 8t-2.5 9q0 8 3 11.5t7 7.5l219 219q6 5 14.5 5t14.5 -5q5 -6 5 -14.5t-5 -14.5l-220 -208l221 -208q5 -6 5 -14.5t-5 -14.5zM270 5q-6 -5 -14.5 -5t-14.5 5l-220 219q-5 5 -7.5 8t-2.5 9q0 8 3 11.5t7 7.5l219 219
q6 5 14.5 5t14.5 -5q5 -6 5 -14.5t-5 -14.5l-220 -208l221 -208q5 -6 5 -14.5t-5 -14.5z" />
    <glyph glyph-name="multiply" unicode="&#xd7;" horiz-adv-x="361" 
d="M43 430q6 6 14.5 6t13.5 -6l109 -114l110 114q5 6 13.5 6t14.5 -6t6 -14.5t-6 -13.5l-114 -110l114 -109q6 -5 6 -13.5t-6 -14.5t-14.5 -6t-13.5 6l-110 113l-109 -113q-5 -6 -13.5 -6t-14.5 6t-6 14.5t6 13.5l113 109l-113 110q-6 5 -6 13.5t6 14.5z" />
    <glyph glyph-name="iacute" unicode="&#xed;" horiz-adv-x="116" 
d="M58 484q8 0 14 -6t6 -14v-444q0 -8 -6 -14t-14 -6t-14 6t-6 14v444q0 8 6 14t14 6zM125 603q11 -12 8 -23.5t-10 -17.5q-21 -17 -34 -25.5t-20.5 -11.5t-12 -1.5t-7.5 4.5q-3 4 -4.5 9t1.5 13.5t12 21.5t27 33q6 6 18 7.5t22 -9.5z" />
    <glyph glyph-name="scaron" unicode="&#x161;" horiz-adv-x="464" 
d="M343 647q6 -6 6 -16.5t-6 -15.5l-95 -83q-4 -3 -8 -5.5t-10 -2.5q-7 0 -11 3t-7 5l-94 83q-5 5 -6 14.5t7 17.5q7 7 16 5.5t15 -6.5l80 -77l82 77q6 5 15.5 6t15.5 -5zM223 0q-32 0 -70 9.5t-70.5 27t-54 43t-21.5 57.5q0 12 7 17t12 5q11 0 16.5 -6.5t5.5 -14.5
q0 -15 13.5 -32t37 -31.5t55.5 -24.5t69 -10q67 -1 103 14t53 33t20 33.5t3 16.5q0 43 -47 66.5t-132 28.5q-65 3 -102 17t-56.5 33t-24.5 39t-5 37q0 22 10.5 44.5t33 40.5t59 29.5t87.5 11.5q39 0 75.5 -9t64.5 -25.5t45.5 -39.5t17.5 -52q0 -8 -3 -12t-7 -5.5t-7.5 -2
l-3.5 -0.5q-14 0 -17 9t-3 11q0 15 -12 30.5t-33.5 27.5t-50.5 20t-63 8q-48 0 -77.5 -10t-46 -24t-22.5 -28.5t-6 -23.5q0 -16 5.5 -30t21.5 -25t45 -19t75 -11q41 -3 80.5 -10.5t70.5 -22.5t50 -40t19 -63q0 -37 -19 -63t-49.5 -42.5t-70 -24t-81.5 -7.5z" />
    <glyph glyph-name="asciitilde" unicode="~" horiz-adv-x="619" 
d="M33 233q0 33 11.5 63t32 53.5t48 37.5t60.5 14q27 0 48 -7.5t37 -18.5t28.5 -25t23.5 -27q10 -12 19.5 -25t22 -23.5t30 -17.5t44.5 -7q25 0 45 11t34 29.5t21.5 42t7.5 48.5q0 8 6 14t14 6t14 -6t6 -14q0 -33 -11.5 -63.5t-31 -53.5t-46.5 -37t-59 -14q-27 0 -47.5 6
t-37 16.5t-29 23.5t-23.5 28q-9 12 -21 25.5t-26.5 24.5t-31.5 18t-37 7q-25 0 -45.5 -11t-35 -29t-23 -41t-8.5 -48q0 -8 -6 -14t-14 -6t-14 6t-6 14z" />
    <glyph glyph-name="circumflex" unicode="&#x2c6;" horiz-adv-x="279" 
d="M251 676q-6 -6 -15.5 -5t-15.5 6l-82 77l-80 -77q-6 -5 -15 -6.5t-16 5.5q-8 8 -7 17.5t6 14.5l94 83q3 2 7 5t11 3q6 0 10 -2.5t8 -5.5l95 -83q6 -5 6 -15.5t-6 -16.5z" />
    <glyph glyph-name="Scaron" unicode="&#x160;" horiz-adv-x="471" 
d="M350 787q6 -6 6 -16.5t-6 -15.5l-95 -83q-4 -3 -8 -5.5t-10 -2.5q-7 0 -11 3t-7 5l-94 83q-5 5 -6 14.5t7 17.5q7 7 16 5.5t15 -6.5l80 -77l82 77q6 5 15.5 6t15.5 -5zM381 503q-30 44 -63.5 64.5t-84.5 21.5q-26 0 -51.5 -8t-45.5 -23t-33 -36.5t-13 -46.5
q0 -27 14.5 -46.5t36 -34.5t46.5 -25.5t47 -17.5q34 -12 69 -27.5t64.5 -37t48 -50.5t19.5 -66q1 -36 -14.5 -67t-43.5 -54t-66 -36t-83 -13q-36 0 -67 8.5t-56.5 23.5t-43 34.5t-26.5 40.5q-5 11 -5.5 19t7.5 13q7 5 15.5 3t11.5 -10q7 -18 21.5 -34.5t35.5 -29.5t48 -21.5
t59 -8.5q31 0 61 9t54 26t38.5 42t13.5 55q-1 27 -16.5 49.5t-39 40t-51.5 30.5t-54 21q-38 12 -71 26.5t-58.5 33.5t-40 44.5t-14.5 59.5t16 62.5t41.5 48.5t58.5 31.5t67 11.5q35 0 62.5 -9t49.5 -23.5t39 -33.5t30 -40q5 -7 2.5 -14t-9.5 -12t-14 -3t-12 9z" />
    <glyph glyph-name="Ecircumflex" unicode="&#xca;" horiz-adv-x="484" 
d="M473 20q0 -8 -6 -14t-14 -6h-395q-8 0 -13 6t-5 14v584q0 4 -1.5 8.5t-1.5 8.5t2.5 7t10.5 3h403q8 0 14 -6t6 -14t-6 -14t-14 -6h-373v-285h308q8 0 14 -6t6 -14t-6 -14t-14 -6h-308v-226h373q8 0 14 -6t6 -14zM368 673q-6 -6 -15.5 -5t-15.5 6l-82 77l-80 -77
q-6 -5 -15 -6.5t-16 5.5q-8 8 -7 17.5t6 14.5l94 83q3 2 7 5t11 3q6 0 10 -2.5t8 -5.5l95 -83q6 -5 6 -15.5t-6 -16.5z" />
    <glyph glyph-name="acircumflex" unicode="&#xe2;" horiz-adv-x="552" 
d="M472 127q-9 -24 -29.5 -47t-48.5 -41t-62.5 -29t-71.5 -11q-50 0 -92.5 19t-73.5 52t-48.5 77t-17.5 94t17.5 94t48.5 77t73.5 52t92.5 19q41 0 76.5 -13t63.5 -32.5t46.5 -41.5t25.5 -41v55q0 38 7 55t22 17q11 0 11 -11v-460q0 -11 -11 -11q-15 0 -22 17t-7 55v55z
M71 241q0 -42 13.5 -79.5t38.5 -65.5t60 -44t77 -16t80.5 16t67 44t45.5 65.5t17 79.5q0 41 -17.5 78.5t-46.5 65.5t-67 44.5t-79 16.5q-42 0 -77 -16t-60 -44t-38.5 -65.5t-13.5 -79.5zM373 533q-6 -6 -15.5 -5t-15.5 6l-82 77l-80 -77q-6 -5 -15 -6.5t-16 5.5
q-8 8 -7 17.5t6 14.5l94 83q3 2 7 5t11 3q6 0 10 -2.5t8 -5.5l95 -83q6 -5 6 -15.5t-6 -16.5z" />
    <glyph glyph-name="ecircumflex" unicode="&#xea;" horiz-adv-x="536" 
d="M270 0q-50 0 -94 19t-77 51.5t-52 76.5t-19 94q0 56 20 101t54.5 76.5t80 48.5t95.5 17t93 -18.5t74.5 -51t49.5 -76.5t18 -95q0 -8 -6 -14t-17 -6h-420q3 -39 20 -73t43.5 -59t61.5 -39.5t75 -14.5q37 0 73 13.5t62 39.5q6 6 15 6t15 -6q5 -6 6 -14.5t-6 -15.5
q-12 -10 -28.5 -20.5t-37 -19.5t-45.5 -14.5t-54 -5.5zM278 447q-40 0 -76 -14.5t-64 -39.5t-45.5 -59t-21.5 -73h401q-3 39 -18.5 73t-41 59t-60 39.5t-74.5 14.5zM385 534q-6 -6 -15.5 -5t-15.5 6l-82 77l-80 -77q-6 -5 -15 -6.5t-16 5.5q-8 8 -7 17.5t6 14.5l94 83
q3 2 7 5t11 3q6 0 10 -2.5t8 -5.5l95 -83q6 -5 6 -15.5t-6 -16.5z" />
    <glyph glyph-name="igrave" unicode="&#xec;" horiz-adv-x="108" 
d="M55 484q8 0 14 -6t6 -14v-444q0 -8 -6 -14t-14 -6t-14 6t-6 14v444q0 8 6 14t14 6zM-18 603q10 11 22 9.5t18 -7.5q18 -20 27 -33t12 -21.5t1.5 -13.5t-4.5 -9q-3 -3 -7.5 -4.5t-12 1.5t-20.5 11.5t-34 25.5q-7 6 -10 17.5t8 23.5z" />
    <glyph glyph-name="Ucircumflex" unicode="&#xdb;" horiz-adv-x="565" 
d="M39 610q0 4 -1 7.5t0 6.5t5 4.5t14 1.5q11 0 16.5 -6t5.5 -14v-366v-2q0 -42 16 -79t43.5 -64.5t64.5 -43t79 -15.5t79 15.5t64.5 43t44 64.5t16.5 79v2v366q0 4 -1 7.5t0 6.5t5 4.5t14 1.5q11 0 16.5 -6t5.5 -14v-366v-1q0 -51 -19 -95t-52 -77t-77.5 -52t-95.5 -19
t-95 19t-77 52t-52 77t-19 95v367zM398 673q-6 -6 -15.5 -5t-15.5 6l-82 77l-80 -77q-6 -5 -15 -6.5t-16 5.5q-8 8 -7 17.5t6 14.5l94 83q3 2 7 5t11 3q6 0 10 -2.5t8 -5.5l95 -83q6 -5 6 -15.5t-6 -16.5z" />
    <glyph glyph-name="Ocircumflex" unicode="&#xd4;" horiz-adv-x="684" 
d="M24 315q0 65 24.5 122.5t67.5 100t100.5 67.5t122.5 25t122.5 -25t100 -67.5t67.5 -100t25 -122.5t-25 -122.5t-67.5 -100.5t-100 -67.5t-122.5 -24.5t-122.5 24.5t-100.5 67.5t-67.5 100.5t-24.5 122.5zM64 315q0 -57 21.5 -107t59 -87.5t87.5 -59t107 -21.5t107 21.5
t87.5 59t59 87.5t21.5 107t-21.5 107t-59 87.5t-87.5 59t-107 21.5t-107 -21.5t-87.5 -59t-59 -87.5t-21.5 -107zM455 672q-6 -6 -15.5 -5t-15.5 6l-82 77l-80 -77q-6 -5 -15 -6.5t-16 5.5q-8 8 -7 17.5t6 14.5l94 83q3 2 7 5t11 3q6 0 10 -2.5t8 -5.5l95 -83q6 -5 6 -15.5
t-6 -16.5z" />
    <glyph glyph-name="Icircumflex" unicode="&#xce;" horiz-adv-x="114" 
d="M83 20q0 -8 -6 -14t-14 -6t-14 6t-6 14v590q0 4 -1 7.5t0 6.5t5 4.5t14 1.5q11 0 16.5 -6t5.5 -14v-590zM173 673q-6 -6 -15.5 -5t-15.5 6l-82 77l-80 -77q-6 -5 -15 -6.5t-16 5.5q-8 8 -7 17.5t6 14.5l94 83q3 2 7 5t11 3q6 0 10 -2.5t8 -5.5l95 -83q6 -5 6 -15.5
t-6 -16.5z" />
    <glyph glyph-name="idieresis" unicode="&#xef;" horiz-adv-x="121" 
d="M61 484q8 0 14 -6t6 -14v-444q0 -8 -6 -14t-14 -6t-14 6t-6 14v444q0 8 6 14t14 6zM-38 593q0 12 8 20.5t20 8.5t20.5 -8.5t8.5 -20.5t-8.5 -20t-20.5 -8t-20 8t-8 20zM102 593q0 12 8 20.5t20 8.5t20.5 -8.5t8.5 -20.5t-8.5 -20t-20.5 -8t-20 8t-8 20z" />
    <glyph glyph-name="icircumflex" unicode="&#xee;" horiz-adv-x="123" 
d="M62 484q8 0 14 -6t6 -14v-444q0 -8 -6 -14t-14 -6t-14 6t-6 14v444q0 8 6 14t14 6zM174 533q-6 -6 -15.5 -5t-15.5 6l-82 77l-80 -77q-6 -5 -15 -6.5t-16 5.5q-8 8 -7 17.5t6 14.5l94 83q3 2 7 5t11 3q6 0 10 -2.5t8 -5.5l95 -83q6 -5 6 -15.5t-6 -16.5z" />
    <glyph glyph-name="ocircumflex" unicode="&#xf4;" horiz-adv-x="540" 
d="M28 242q0 50 19 94t52 77t77 52t94 19t94 -19t77 -52t52 -77t19 -94t-19 -94t-52 -77t-77 -52t-94 -19t-94 19t-77 52t-52 77t-19 94zM70 242q0 -42 15.5 -79.5t42.5 -65.5t63.5 -44t78.5 -16t78.5 16t63.5 44t42.5 65.5t15.5 79.5t-15.5 79.5t-42.5 65.5t-63.5 44
t-78.5 16t-78.5 -16t-63.5 -44t-42.5 -65.5t-15.5 -79.5zM382 534q-6 -6 -15.5 -5t-15.5 6l-82 77l-80 -77q-6 -5 -15 -6.5t-16 5.5q-8 8 -7 17.5t6 14.5l94 83q3 2 7 5t11 3q6 0 10 -2.5t8 -5.5l95 -83q6 -5 6 -15.5t-6 -16.5z" />
    <glyph glyph-name="ucircumflex" unicode="&#xfb;" horiz-adv-x="557" 
d="M478 128q-7 -19 -26.5 -41t-48.5 -41.5t-65.5 -32.5t-77.5 -13q-50 0 -91.5 19t-71.5 51.5t-46.5 76.5t-16.5 94v221q0 9 5.5 15t14.5 6t14.5 -6t5.5 -15v-220q0 -42 13 -79.5t37.5 -65.5t59 -44t76.5 -16q41 0 80.5 17t70 45.5t49 66t18.5 78.5v218q0 9 5.5 15t14.5 6
t14.5 -6t5.5 -15v-451q0 -11 -11 -11q-15 0 -22 17t-7 55v56zM388 534q-6 -6 -15.5 -5t-15.5 6l-82 77l-80 -77q-6 -5 -15 -6.5t-16 5.5q-8 8 -7 17.5t6 14.5l94 83q3 2 7 5t11 3q6 0 10 -2.5t8 -5.5l95 -83q6 -5 6 -15.5t-6 -16.5z" />
    <glyph glyph-name="Zcaron" unicode="&#x17d;" horiz-adv-x="552" 
d="M396 787q6 -6 6 -16.5t-6 -15.5l-95 -83q-4 -3 -8 -5.5t-10 -2.5q-7 0 -11 3t-7 5l-94 83q-5 5 -6 14.5t7 17.5q7 7 16 5.5t15 -6.5l80 -77l82 77q6 5 15.5 6t15.5 -5zM525 611q0 -8 -5 -14l-438 -564l423 7q8 0 14 -6t6 -14t-6 -14t-14 -6h-448q-10 0 -17.5 2t-9.5 12
q-2 7 0.5 13.5t6.5 11.5l434 557l-422 -5q-8 0 -14 6t-6 14t6 14t14 6h456q8 0 14 -6t6 -14z" />
    <glyph glyph-name="cent" unicode="&#xa2;" horiz-adv-x="433" 
d="M386 395q-26 24 -60.5 37.5t-72.5 13.5q-42 0 -78.5 -16t-63.5 -44t-42.5 -65.5t-15.5 -79.5t15.5 -79.5t42.5 -65.5t63.5 -44t78.5 -16q37 0 73 13.5t62 39.5q6 6 15 6q7 0 15 -6q6 -8 6 -15q0 -9 -6 -15q-22 -19 -58 -37t-86 -22v-94q0 -8 -6 -14t-14 -6t-14 6t-6 14
v94q-47 3 -87.5 23.5t-70.5 52.5t-47.5 74.5t-17.5 90.5t17.5 90t47.5 74.5t70.5 52.5t87.5 24v94q0 8 6 14t14 6t14 -6t6 -14v-94q38 -2 76.5 -16t65.5 -41q6 -8 6 -15q0 -9 -6 -15q-8 -6 -15 -6q-9 0 -15 6z" />
    <glyph glyph-name="atilde" unicode="&#xe3;" horiz-adv-x="552" 
d="M472 127q-9 -24 -29.5 -47t-48.5 -41t-62.5 -29t-71.5 -11q-50 0 -92.5 19t-73.5 52t-48.5 77t-17.5 94t17.5 94t48.5 77t73.5 52t92.5 19q41 0 76.5 -13t63.5 -32.5t46.5 -41.5t25.5 -41v55q0 38 7 55t22 17q11 0 11 -11v-460q0 -11 -11 -11q-15 0 -22 17t-7 55v55z
M71 241q0 -42 13.5 -79.5t38.5 -65.5t60 -44t77 -16t80.5 16t67 44t45.5 65.5t17 79.5q0 41 -17.5 78.5t-46.5 65.5t-67 44.5t-79 16.5q-42 0 -77 -16t-60 -44t-38.5 -65.5t-13.5 -79.5zM406 656q0 8 6 14t14 6t14 -6t6 -14q0 -23 -9 -46t-24 -42t-35 -30.5t-43 -11.5
q-17 0 -29 5.5t-21 13.5t-15.5 18t-12.5 19q-6 8 -12 18t-15 18.5t-20.5 14.5t-27.5 6q-15 0 -26 -9t-18.5 -23t-11.5 -30.5t-4 -31.5q0 -8 -6 -14t-14 -6t-14 6t-6 14q0 23 7 46.5t20 42t31.5 30.5t41.5 12q21 0 36.5 -5.5t26.5 -14.5t18.5 -20t14.5 -21q4 -7 9 -15.5
t12 -16.5t15.5 -13.5t20.5 -5.5q16 0 29 8.5t22 22t14.5 30t5.5 31.5z" />
    <glyph glyph-name="Oslash" unicode="&#xd8;" horiz-adv-x="680" 
d="M474 651q8 -3 11 -10.5t1 -15.5l-10 -26q40 -19 73 -48t56.5 -66t36.5 -80t13 -90q0 -65 -25 -122.5t-67.5 -100.5t-100 -67.5t-122.5 -24.5q-52 0 -97 15l-13 -33q-3 -8 -10.5 -10.5t-15.5 0.5t-10.5 10.5t-0.5 15.5l12 31q-40 19 -73 48.5t-57 66.5t-37 80.5t-13 90.5
q0 65 24.5 122.5t67.5 100t100.5 67.5t122.5 25q26 0 50.5 -4t47.5 -12l10 26q3 8 10.5 11t15.5 0zM65 315q0 -41 11.5 -78.5t31.5 -70t48.5 -58t63.5 -41.5l203 510q-20 6 -40.5 9.5t-42.5 3.5q-57 0 -107 -21.5t-87.5 -59t-59 -87.5t-21.5 -107zM615 315q0 40 -11.5 77.5
t-31.5 69.5t-48.5 57.5t-62.5 42.5l-203 -510q39 -12 82 -12q57 0 107 21.5t87.5 59t59 87.5t21.5 107z" />
    <glyph glyph-name="e" unicode="e" 
d="M270 0q-50 0 -94 19t-77 51.5t-52 76.5t-19 94q0 56 20 101t54.5 76.5t80 48.5t95.5 17t93 -18.5t74.5 -51t49.5 -76.5t18 -95q0 -8 -6 -14t-17 -6h-420q3 -39 20 -73t43.5 -59t61.5 -39.5t75 -14.5q37 0 73 13.5t62 39.5q6 6 15 6t15 -6q5 -6 6 -14.5t-6 -15.5
q-12 -10 -28.5 -20.5t-37 -19.5t-45.5 -14.5t-54 -5.5zM278 447q-40 0 -76 -14.5t-64 -39.5t-45.5 -59t-21.5 -73h401q-3 39 -18.5 73t-41 59t-60 39.5t-74.5 14.5z" />
    <glyph glyph-name="germandbls" unicode="&#xdf;" horiz-adv-x="384" 
d="M133 350q0 8 5.5 14t13.5 6h2h20q23 0 43 9t35 24t23.5 35t8.5 43t-8.5 43t-23.5 35t-35 23.5t-43 8.5h-89v-571q0 -8 -6 -14t-14 -6t-14 6t-6 14v591q0 4 -1 7.5t0 6.5t5 4.5t14 1.5h111q31 0 58.5 -12t47.5 -32t32 -47.5t12 -58.5q0 -41 -19.5 -74.5t-51.5 -53.5
q48 -22 77.5 -67t29.5 -101q0 -39 -14.5 -72.5t-40 -58.5t-59 -39.5t-72.5 -14.5h-19h-3q-19 0 -19 19q0 8 5.5 14t13.5 6h2h20q30 0 57 11.5t46.5 31.5t31 46.5t11.5 56.5t-11.5 56.5t-31 46.5t-46.5 31.5t-57 11.5h-22q-19 0 -19 19z" />
    <glyph glyph-name="Euro" unicode="&#x20ac;" horiz-adv-x="679" 
d="M394 368q0 -8 -6 -14t-14 -6h-240q-2 -8 -2 -17v-17v-13.5t1 -12.5h241q8 0 14 -6t6 -14t-6 -14t-14 -6h-234q11 -45 36 -83.5t60 -66t79 -43.5t92 -16q63 0 116.5 25.5t91.5 70.5q5 6 9 7.5t8 1.5q8 0 14 -6t6 -13q0 -9 -8 -17q-26 -28 -51.5 -48.5t-53 -34t-60 -20
t-72.5 -6.5q-57 0 -108 19t-91.5 52t-69 78.5t-39.5 99.5h-63q-8 0 -14 6t-6 14t6 14t14 6h57q-1 6 -1 12.5v13.5q0 8 0.5 17t1.5 17h-58q-8 0 -14 6t-6 14t6 14t14 6h64q13 52 41.5 96t69 76t90.5 50.5t106 18.5q40 0 72.5 -7t60.5 -21t53.5 -34.5t52.5 -48.5q6 -6 6 -14
t-6 -14t-14 -6q-9 0 -17 9q-45 49 -95 72.5t-113 23.5q-48 0 -90.5 -15t-77 -42t-60 -64t-37.5 -80h232q8 0 14 -6t6 -14z" />
    <glyph glyph-name="perthousand" unicode="&#x2030;" horiz-adv-x="874" 
d="M28 500q0 28 10.5 53t29 44t43 29.5t53.5 10.5q28 0 53 -10.5t44 -29.5t29.5 -44t10.5 -53q0 -29 -10.5 -53.5t-29.5 -43t-44 -29t-53 -10.5q-29 0 -53.5 10.5t-43 29t-29 43t-10.5 53.5zM420 635q8 -3 11 -10.5t1 -15.5l-238 -597q-3 -8 -10.5 -10.5t-15.5 0.5
t-10.5 10.5t-0.5 15.5l237 596q3 8 10.5 11t15.5 0zM68 500q0 -41 27.5 -68.5t68.5 -27.5t69 27.5t28 68.5t-28 69t-69 28t-68.5 -28t-27.5 -69zM288 136q0 28 10.5 53t29 44t43 29.5t53.5 10.5q28 0 53 -10.5t44 -29.5t29.5 -44t10.5 -53q0 -29 -10.5 -53.5t-29.5 -43
t-44 -29t-53 -10.5q-29 0 -53.5 10.5t-43 29t-29 43t-10.5 53.5zM328 136q0 -41 27.5 -68.5t68.5 -27.5t69 27.5t28 68.5t-28 69t-69 28t-68.5 -28t-27.5 -69zM588 136q0 28 10.5 53t29 44t43 29.5t53.5 10.5q28 0 53 -10.5t44 -29.5t29.5 -44t10.5 -53q0 -29 -10.5 -53.5
t-29.5 -43t-44 -29t-53 -10.5q-29 0 -53.5 10.5t-43 29t-29 43t-10.5 53.5zM628 136q0 -41 27.5 -68.5t68.5 -27.5t69 27.5t28 68.5t-28 69t-69 28t-68.5 -28t-27.5 -69z" />
    <glyph glyph-name="dollar" unicode="$" horiz-adv-x="439" 
d="M220 689q8 0 14 -6t6 -14v-41q30 -3 54.5 -12.5t44 -23.5t35 -32t27.5 -37q5 -7 2.5 -14t-9.5 -12t-14 -3t-12 9q-30 44 -63.5 64.5t-84.5 21.5q-26 0 -51.5 -8t-45.5 -23t-33 -36.5t-13 -46.5q0 -27 14.5 -46.5t36 -34.5t46.5 -25.5t47 -17.5q34 -12 69 -27.5t64.5 -37
t48 -50.5t19.5 -66q1 -33 -12.5 -62.5t-37.5 -52t-58 -37t-74 -17.5v-62q0 -8 -6 -14t-14 -6t-14 6t-6 14v61q-33 2 -62 11.5t-52 24t-39.5 33t-24.5 38.5q-5 11 -5.5 19t7.5 13q7 5 15.5 3t11.5 -10q7 -18 21.5 -34.5t35.5 -29.5t48 -21.5t59 -8.5q31 0 61 9t54 26t38.5 42
t13.5 55q-1 27 -16.5 49.5t-39 40t-51.5 30.5t-54 21q-38 12 -71 26.5t-58.5 33.5t-40 44.5t-14.5 59.5q0 31 13.5 58t36.5 47t52 32.5t61 15.5v41q0 8 6 14t14 6z" />
    <glyph glyph-name="yen" unicode="&#xa5;" horiz-adv-x="591" 
d="M482 226q0 -8 -6 -14t-14 -6h-146v-186q0 -8 -6 -14t-14 -6t-14 6t-6 14v186h-152q-8 0 -14 6t-6 14t6 14t14 6h152v80h-152q-8 0 -14 6t-6 14t6 14t14 6h128l-231 231q-6 6 -6 14.5t6 13.5q14 14 28 0l247 -246l247 246q14 14 28 0q6 -5 6 -13.5t-6 -14.5l-231 -231h122
q8 0 14 -6t6 -14t-6 -14t-14 -6h-146v-80h146q8 0 14 -6t6 -14z" />
    <glyph glyph-name="Ntilde" unicode="&#xd1;" horiz-adv-x="478" 
d="M590 20q0 -8 -6 -14t-14 -6t-12 3t-8 8l-471 545v-536q0 -8 -6 -14t-14 -6t-14 6t-6 14v592q0 4 -1 7.5t-0.5 6t4.5 4t15 1.5q6 0 10.5 -4.5l11.5 -11.5l4.5 -4.5t20 -21.5t45.5 -51.5t82 -95t130 -152t189 -221.5v543q0 4 -1.5 7.5t-1 6t5 4t15.5 1.5q16 0 19 -5.5
t3 -13.5v-592zM384 795q0 8 6 14t14 6t14 -6t6 -14q0 -23 -9 -46t-24 -42t-35 -30.5t-43 -11.5q-17 0 -29 5.5t-21 13.5t-15.5 18t-12.5 19q-6 8 -12 18t-15 18.5t-20.5 14.5t-27.5 6q-15 0 -26 -9t-18.5 -23t-11.5 -30.5t-4 -31.5q0 -8 -6 -14t-14 -6t-14 6t-6 14
q0 23 7 46.5t20 42t31.5 30.5t41.5 12q21 0 36.5 -5.5t26.5 -14.5t18.5 -20t14.5 -21q4 -7 9 -15.5t12 -16.5t15.5 -13.5t20.5 -5.5q16 0 29 8.5t22 22t14.5 30t5.5 31.5z" />
    <glyph glyph-name="Agrave" unicode="&#xc0;" horiz-adv-x="504" 
d="M248 631q6 0 12.5 -3t9.5 -10l231 -591q3 -8 -0.5 -15.5t-11.5 -10.5t-15.5 0.5t-10.5 11.5l-62 157h-300l-61 -157q-3 -8 -10.5 -11.5t-15.5 -0.5t-11.5 10.5t-0.5 15.5l228 584q1 4 0 7.5t0 6.5t4.5 4.5t13.5 1.5zM117 210h269l-135 343zM173 743q10 11 22 9.5t18 -7.5
q18 -20 27 -33t12 -21.5t1.5 -13.5t-4.5 -9q-3 -3 -7.5 -4.5t-12 1.5t-20.5 11.5t-34 25.5q-7 6 -10 17.5t8 23.5z" />
    <glyph glyph-name="Acircumflex" unicode="&#xc2;" horiz-adv-x="507" 
d="M252 631q6 0 12.5 -3t9.5 -10l231 -591q3 -8 -0.5 -15.5t-11.5 -10.5t-15.5 0.5t-10.5 11.5l-62 157h-300l-61 -157q-3 -8 -10.5 -11.5t-15.5 -0.5t-11.5 10.5t-0.5 15.5l228 584q1 4 0 7.5t0 6.5t4.5 4.5t13.5 1.5zM121 210h269l-135 343zM366 673q-6 -6 -15.5 -5
t-15.5 6l-82 77l-80 -77q-6 -5 -15 -6.5t-16 5.5q-8 8 -7 17.5t6 14.5l94 83q3 2 7 5t11 3q6 0 10 -2.5t8 -5.5l95 -83q6 -5 6 -15.5t-6 -16.5z" />
    <glyph glyph-name="Atilde" unicode="&#xc3;" horiz-adv-x="508" 
d="M252 631q6 0 12.5 -3t9.5 -10l231 -591q3 -8 -0.5 -15.5t-11.5 -10.5t-15.5 0.5t-10.5 11.5l-62 157h-300l-61 -157q-3 -8 -10.5 -11.5t-15.5 -0.5t-11.5 10.5t-0.5 15.5l228 584q1 4 0 7.5t0 6.5t4.5 4.5t13.5 1.5zM121 210h269l-135 343zM396 796q0 8 6 14t14 6t14 -6
t6 -14q0 -23 -9 -46t-24 -42t-35 -30.5t-43 -11.5q-17 0 -29 5.5t-21 13.5t-15.5 18t-12.5 19q-6 8 -12 18t-15 18.5t-20.5 14.5t-27.5 6q-15 0 -26 -9t-18.5 -23t-11.5 -30.5t-4 -31.5q0 -8 -6 -14t-14 -6t-14 6t-6 14q0 23 7 46.5t20 42t31.5 30.5t41.5 12q21 0 36.5 -5.5
t26.5 -14.5t18.5 -20t14.5 -21q4 -7 9 -15.5t12 -16.5t15.5 -13.5t20.5 -5.5q16 0 29 8.5t22 22t14.5 30t5.5 31.5z" />
    <glyph glyph-name="Adieresis" unicode="&#xc4;" horiz-adv-x="505" 
d="M250 631q6 0 12.5 -3t9.5 -10l231 -591q3 -8 -0.5 -15.5t-11.5 -10.5t-15.5 0.5t-10.5 11.5l-62 157h-300l-61 -157q-3 -8 -10.5 -11.5t-15.5 -0.5t-11.5 10.5t-0.5 15.5l228 584q1 4 0 7.5t0 6.5t4.5 4.5t13.5 1.5zM119 210h269l-135 343zM151 723q0 12 8 20.5t20 8.5
t20.5 -8.5t8.5 -20.5t-8.5 -20t-20.5 -8t-20 8t-8 20zM291 723q0 12 8 20.5t20 8.5t20.5 -8.5t8.5 -20.5t-8.5 -20t-20.5 -8t-20 8t-8 20z" />
    <glyph glyph-name="AE" unicode="&#xc6;" horiz-adv-x="697" 
d="M690 20q0 -8 -6 -14t-14 -6h-395q-8 0 -13 6t-5 14v150h-150l-61 -157q-3 -8 -10.5 -11.5t-15.5 -0.5t-11.5 10.5t-0.5 15.5l228 584q1 4 0 7.5t0 6.5t4.5 4.5t13.5 1.5h416q8 0 14 -6t6 -14t-6 -14t-14 -6h-373v-285h308q8 0 14 -6t6 -14t-6 -14t-14 -6h-308v-226h373
q8 0 14 -6t6 -14zM257 553l-134 -343h134v343z" />
    <glyph glyph-name="Otilde" unicode="&#xd5;" horiz-adv-x="684" 
d="M24 315q0 65 24.5 122.5t67.5 100t100.5 67.5t122.5 25t122.5 -25t100 -67.5t67.5 -100t25 -122.5t-25 -122.5t-67.5 -100.5t-100 -67.5t-122.5 -24.5t-122.5 24.5t-100.5 67.5t-67.5 100.5t-24.5 122.5zM64 315q0 -57 21.5 -107t59 -87.5t87.5 -59t107 -21.5t107 21.5
t87.5 59t59 87.5t21.5 107t-21.5 107t-59 87.5t-87.5 59t-107 21.5t-107 -21.5t-87.5 -59t-59 -87.5t-21.5 -107zM487 796q0 8 6 14t14 6t14 -6t6 -14q0 -23 -9 -46t-24 -42t-35 -30.5t-43 -11.5q-17 0 -29 5.5t-21 13.5t-15.5 18t-12.5 19q-6 8 -12 18t-15 18.5t-20.5 14.5
t-27.5 6q-15 0 -26 -9t-18.5 -23t-11.5 -30.5t-4 -31.5q0 -8 -6 -14t-14 -6t-14 6t-6 14q0 23 7 46.5t20 42t31.5 30.5t41.5 12q21 0 36.5 -5.5t26.5 -14.5t18.5 -20t14.5 -21q4 -7 9 -15.5t12 -16.5t15.5 -13.5t20.5 -5.5q16 0 29 8.5t22 22t14.5 30t5.5 31.5z" />
    <glyph glyph-name="thorn" unicode="&#xfe;" 
d="M60 -133q-8 0 -14 6t-6 14v729q0 8 6 14t14 6t14 -6t6 -14v-261q7 19 25.5 41t46.5 41.5t63.5 32.5t76.5 13q50 0 92.5 -19t73.5 -52t48.5 -77t17.5 -94t-17.5 -94t-48.5 -77t-73.5 -52t-92.5 -19q-37 0 -71 10.5t-62.5 28.5t-49 41t-29.5 48v-240q0 -8 -6 -14t-14 -6z
M481 241q0 42 -13.5 79.5t-38.5 65.5t-60 44t-77 16q-41 0 -79 -16.5t-67 -44.5t-46.5 -65.5t-17.5 -78.5q0 -42 17 -79.5t45.5 -65.5t67 -44t80.5 -16t77 16t60 44t38.5 65.5t13.5 79.5z" />
    <glyph glyph-name="sterling" unicode="&#xa3;" horiz-adv-x="529" 
d="M446 501q-24 47 -56.5 68.5t-79.5 21.5q-31 0 -58.5 -12t-47.5 -32t-32 -47.5t-12 -58.5v-149l85 4h4q22 0 22 -22q0 -8 -6 -14t-16 -6h-3l-86 3v-176q8 12 17.5 19t19.5 10t19 3.5t15 0.5q32 0 54.5 -10.5t38.5 -33.5t32 -29.5t39 -6.5q11 0 23 4t22.5 12.5t17 20
t6.5 26.5q0 7 5.5 12t11.5 5q8 0 13 -5t5 -12q0 -26 -10.5 -44.5t-26 -30t-33.5 -17t-34 -5.5q-38 0 -59 10t-36 32q-14 21 -30 27.5t-39 6.5q-29 0 -50 -14t-21 -42v-2q-1 -8 -6.5 -13t-13.5 -5t-13.5 4.5t-6.5 12.5v240l-82 -3h-4q-8 0 -14 6t-6 14q0 10 6 16t14 6h4
l82 -4v149q0 39 15 74t40.5 60.5t60.5 40.5t74 15q55 0 98.5 -29.5t67.5 -75.5q4 -8 4 -18t-8 -15q-5 -3 -13 -2.5t-13 10.5z" />
    <glyph glyph-name="mu" unicode="&#xb5;" horiz-adv-x="542" 
d="M484 128q-7 -19 -26.5 -41t-48.5 -41.5t-65.5 -32.5t-77.5 -13q-61 0 -109 27t-77 73v-213q0 -8 -6 -14t-14 -6t-14 6t-6 14v575q0 9 5.5 15t14.5 6t14.5 -6t5.5 -15v-229q1 -41 15 -76.5t38 -62t58 -42t75 -15.5t80.5 17t70 45.5t49 66t18.5 78.5v218q0 9 5.5 15t14.5 6
t14.5 -6t5.5 -15v-451q0 -11 -11 -11q-15 0 -22 17t-7 55v56z" />
    <glyph glyph-name="mu" unicode="&#x3bc;" horiz-adv-x="542" 
d="M484 128q-7 -19 -26.5 -41t-48.5 -41.5t-65.5 -32.5t-77.5 -13q-61 0 -109 27t-77 73v-213q0 -8 -6 -14t-14 -6t-14 6t-6 14v575q0 9 5.5 15t14.5 6t14.5 -6t5.5 -15v-229q1 -41 15 -76.5t38 -62t58 -42t75 -15.5t80.5 17t70 45.5t49 66t18.5 78.5v218q0 9 5.5 15t14.5 6
t14.5 -6t5.5 -15v-451q0 -11 -11 -11q-15 0 -22 17t-7 55v56z" />
    <glyph glyph-name="Eth" unicode="&#xd0;" horiz-adv-x="473" 
d="M62 0q-8 0 -14 6t-6 14l3 319l-63 -3q-8 -1 -14 5.5t-6 14.5t6 14.5t14 5.5l63 -3l-3 238q0 4 -1 7.5t0 6.5t5 4.5t14 1.5h73q65 0 122.5 -25t100.5 -68t68 -100.5t25 -122.5t-25 -122.5t-68 -100.5t-100.5 -67.5t-122.5 -24.5h-71zM160 356q0 -8 -6 -14.5t-14 -5.5
l-61 3l3 -299h51q57 0 107 21.5t87.5 59t59.5 87.5t22 107t-22 107t-59.5 87.5t-87.5 59.5t-107 22h-51l-3 -218l61 3q8 1 14 -5.5t6 -14.5z" />
    <glyph glyph-name="cedilla" unicode="&#xb8;" horiz-adv-x="166" 
d="M61 18h41v-64q19 -6 31.5 -23t12.5 -39q0 -27 -18.5 -45.5t-46.5 -18.5q-27 0 -45.5 18.5t-18.5 45.5q0 9 6 15t15 6t14.5 -6t5.5 -15q2 -9 8 -16t15 -7q11 0 17 7t6 16q0 10 -6 16.5t-17 6.5q-8 0 -14 6.5t-6 17.5v79z" />
    <glyph glyph-name="ccedilla" unicode="&#xe7;" horiz-adv-x="462" 
d="M398 395q-26 24 -60.5 37.5t-72.5 13.5q-42 0 -78.5 -16t-63.5 -44t-42.5 -65.5t-15.5 -79.5t15.5 -79.5t42.5 -65.5t63.5 -44t78.5 -16q37 0 73 13.5t62 39.5q6 6 15 6q7 0 15 -6q6 -8 6 -15q0 -9 -6 -15q-12 -10 -28.5 -20.5t-37 -19.5t-45.5 -14.5t-54 -5.5
q-50 0 -94 19t-77 52t-52 77t-19 94t19 94t52 77t77 52t94 19q42 0 87 -13.5t76 -44.5q6 -8 6 -15q0 -9 -6 -15q-8 -6 -15 -6q-9 0 -15 6zM239 18h41v-64q19 -6 31.5 -23t12.5 -39q0 -27 -18.5 -45.5t-46.5 -18.5q-27 0 -45.5 18.5t-18.5 45.5q0 9 6 15t15 6t14.5 -6
t5.5 -15q2 -9 8 -16t15 -7q11 0 17 7t6 16q0 10 -6 16.5t-17 6.5q-8 0 -14 6.5t-6 17.5v79z" />
    <glyph glyph-name="bullet" unicode="&#x2022;" horiz-adv-x="180" 
d="M28 328q0 26 18 44t44 18t44 -18t18 -44t-18 -44t-44 -18t-44 18t-18 44z" />
    <glyph glyph-name="Ccedilla" unicode="&#xc7;" horiz-adv-x="611" 
d="M549 493q-45 49 -95 72.5t-113 23.5q-57 0 -107 -21.5t-87.5 -59t-59 -87.5t-21.5 -107t21.5 -107t59 -87.5t87.5 -59t107 -21.5q63 0 116.5 25.5t91.5 70.5q5 6 9 7.5t8 1.5q8 0 14 -6t6 -13q0 -9 -8 -17q-26 -28 -51.5 -48.5t-53 -34t-60 -20t-72.5 -6.5
q-65 0 -122.5 24.5t-100.5 67.5t-67.5 100.5t-24.5 122.5t24.5 122.5t67.5 100t100.5 67.5t122.5 25q40 0 72.5 -7t60.5 -21t53.5 -34.5t52.5 -48.5q6 -6 6 -14t-6 -14t-14 -6q-9 0 -17 9zM305 18h41v-64q19 -6 31.5 -23t12.5 -39q0 -27 -18.5 -45.5t-46.5 -18.5
q-27 0 -45.5 18.5t-18.5 45.5q0 9 6 15t15 6t14.5 -6t5.5 -15q2 -9 8 -16t15 -7q11 0 17 7t6 16q0 10 -6 16.5t-17 6.5q-8 0 -14 6.5t-6 17.5v79z" />
    <glyph glyph-name="f" unicode="f" horiz-adv-x="283" 
d="M275 618q0 -8 -6 -14t-14 -6q-51 -1 -77.5 -39t-27.5 -93v-54l85 4h4q22 0 22 -22q0 -8 -6 -14t-16 -6h-3l-86 3v-357q0 -8 -6 -14t-14 -6t-14 6t-6 14v357l-82 -3h-4q-8 0 -14 6t-6 14q0 10 6 16t14 6h4l82 -4v54q1 74 38.5 122.5t106.5 49.5q8 0 14 -6t6 -14z" />
    <glyph glyph-name="Aacute" unicode="&#xc1;" 
d="M264 631q6 0 12.5 -3t9.5 -10l231 -591q3 -8 -0.5 -15.5t-11.5 -10.5t-15.5 0.5t-10.5 11.5l-62 157h-300l-61 -157q-3 -8 -10.5 -11.5t-15.5 -0.5t-11.5 10.5t-0.5 15.5l228 584q1 4 0 7.5t0 6.5t4.5 4.5t13.5 1.5zM133 210h269l-135 343zM330 743q11 -12 8 -23.5
t-10 -17.5q-21 -17 -34 -25.5t-20.5 -11.5t-12 -1.5t-7.5 4.5q-3 4 -4.5 9t1.5 13.5t12 21.5t27 33q6 6 18 7.5t22 -9.5z" />
    <glyph glyph-name="Aring" unicode="&#xc5;" 
d="M264 631q6 0 12.5 -3t9.5 -10l231 -591q3 -8 -0.5 -15.5t-11.5 -10.5t-15.5 0.5t-10.5 11.5l-62 157h-300l-61 -157q-3 -8 -10.5 -11.5t-15.5 -0.5t-11.5 10.5t-0.5 15.5l228 584q1 4 0 7.5t0 6.5t4.5 4.5t13.5 1.5zM133 210h269l-135 343z" />
    <glyph glyph-name="aring" unicode="&#xe5;" horiz-adv-x="553" 
d="M472 127q-9 -24 -29.5 -47t-48.5 -41t-62.5 -29t-71.5 -11q-50 0 -92.5 19t-73.5 52t-48.5 77t-17.5 94t17.5 94t48.5 77t73.5 52t92.5 19q41 0 76.5 -13t63.5 -32.5t46.5 -41.5t25.5 -41v55q0 38 7 55t22 17q11 0 11 -11v-460q0 -11 -11 -11q-15 0 -22 17t-7 55v55z
M71 241q0 -42 13.5 -79.5t38.5 -65.5t60 -44t77 -16t80.5 16t67 44t45.5 65.5t17 79.5q0 41 -17.5 78.5t-46.5 65.5t-67 44.5t-79 16.5q-42 0 -77 -16t-60 -44t-38.5 -65.5t-13.5 -79.5z" />
    <glyph glyph-name="Thorn" unicode="&#xde;" horiz-adv-x="0" 
 />
    <glyph glyph-name="onehalf" unicode="&#xbd;" horiz-adv-x="764" 
d="M94 629q4 -3 5 -7.5t1 -7.5v-444q0 -8 -6 -14t-14 -6t-14 6t-6 14v400l-22 -28q-5 -6 -13.5 -6.5t-14.5 5.5t-6 14t5 14l56 59q5 5 13 6t16 -5zM352 635q8 -3 11 -10.5t1 -15.5l-238 -597q-3 -8 -10.5 -10.5t-15.5 0.5t-10.5 10.5t-0.5 15.5l237 596q3 8 10.5 11t15.5 0z
M715 20q0 -8 -6 -14t-14 -6h-370q-19 0 -29.5 11t-0.5 28q18 32 44.5 61t57 54.5t64 47.5t65.5 39q41 22 67 37.5t41 28t20.5 24.5t5.5 28q0 9 -6 23.5t-22.5 28.5t-46 24t-77.5 10q-34 0 -63 -8t-50.5 -20t-33.5 -27.5t-12 -30.5q0 -2 -3 -11t-17 -9l-3.5 0.5t-7.5 2
t-7 5.5t-3 12q0 29 17.5 52t45.5 39.5t64.5 25.5t75.5 9q51 0 87.5 -11.5t59.5 -29.5t33 -40.5t10 -44.5q-1 -31 -15.5 -52t-38 -38.5t-54.5 -33.5t-65 -36q-63 -38 -108.5 -76t-80.5 -83h356q8 0 14 -6t6 -14z" />
    <glyph glyph-name="onequarter" unicode="&#xbc;" horiz-adv-x="669" 
d="M94 629q4 -3 5 -7.5t1 -7.5v-444q0 -8 -6 -14t-14 -6t-14 6t-6 14v400l-22 -28q-5 -6 -13.5 -6.5t-14.5 5.5t-6 14t5 14l56 59q5 5 13 6t16 -5zM352 635q8 -3 11 -10.5t1 -15.5l-238 -597q-3 -8 -10.5 -10.5t-15.5 0.5t-10.5 10.5t-0.5 15.5l237 596q3 8 10.5 11t15.5 0z
M382 481q10 -4 11.5 -10t-0.5 -14l-130 -417h242v112q-3 8 3 14t14 6t14 -6t6 -14v-112h70q8 0 14 -6t6 -14t-6 -14t-14 -6h-73v-117q3 -8 -3 -14t-14 -6t-14 6t-6 14v117h-269q-10 0 -16.5 8.5t-2.5 19.5l142 441q3 9 10.5 12t15.5 0z" />
    <glyph glyph-name="onesuperior" unicode="&#xb9;" horiz-adv-x="143" 
d="M94 479q4 -3 5 -7.5t1 -7.5v-444q0 -8 -6 -14t-14 -6t-14 6t-6 14v400l-22 -28q-5 -6 -13.5 -6.5t-14.5 5.5t-6 14t5 14l56 59q5 5 13 6t16 -5z" />
    <glyph glyph-name="ordfeminine" unicode="&#xaa;" horiz-adv-x="553" 
d="M472 127q-9 -24 -29.5 -47t-48.5 -41t-62.5 -29t-71.5 -11q-50 0 -92.5 19t-73.5 52t-48.5 77t-17.5 94t17.5 94t48.5 77t73.5 52t92.5 19q41 0 76.5 -13t63.5 -32.5t46.5 -41.5t25.5 -41v55q0 38 7 55t22 17q11 0 11 -11v-460q0 -11 -11 -11q-15 0 -22 17t-7 55v55z
M71 241q0 -42 13.5 -79.5t38.5 -65.5t60 -44t77 -16t80.5 16t67 44t45.5 65.5t17 79.5q0 41 -17.5 78.5t-46.5 65.5t-67 44.5t-79 16.5q-42 0 -77 -16t-60 -44t-38.5 -65.5t-13.5 -79.5z" />
    <glyph glyph-name="eth" unicode="&#xf0;" horiz-adv-x="523" 
d="M318 -145q-8 4 -10.5 11.5t0.5 15.5l73 152q-27 -16 -58 -25t-66 -9q-50 0 -94 19t-77 52t-52 77t-19 94t19 94t52 77t77 52t94 19t94 -19t77 -52t52 -77t19 -94q0 -32 -9 -62t-21 -56l-125 -259q-3 -8 -10.5 -11t-15.5 1zM457 242q0 42 -15.5 79.5t-42.5 65.5t-63.5 44
t-78.5 16t-78.5 -16t-63.5 -44t-42.5 -65.5t-15.5 -79.5t15.5 -79.5t42.5 -65.5t63.5 -44t78.5 -16t78.5 16t63.5 44t42.5 65.5t15.5 79.5z" />
    <glyph glyph-name="uni00AD" unicode="&#xad;" horiz-adv-x="466" 
d="M427 302q0 -8 -6 -14t-14 -6h-348q-8 0 -14 6t-6 14t6 14t14 6h348q8 0 14 -6t6 -14z" />
    <glyph glyph-name="h" unicode="h" horiz-adv-x="552" 
d="M484 241q0 42 -14 79.5t-39.5 65.5t-61 44t-77.5 16q-41 0 -79.5 -17t-68 -45.5t-47 -66t-17.5 -78.5v-218q0 -9 -5.5 -15t-14.5 -6t-14.5 6t-5.5 15v595q0 8 6 14t14 6t14 -6t6 -14v-261q7 19 25.5 41t46.5 41.5t63.5 32.5t76.5 13q50 0 92.5 -19t73.5 -51.5t48.5 -76.5
t17.5 -94v-221q0 -9 -5.5 -15t-14.5 -6t-14.5 6t-5.5 15v220z" />
    <glyph glyph-name="zero" unicode="0" horiz-adv-x="1630" 
d="M72 505q5 0 9 -2q4 -4 4 -9t-3 -8q-5 -3 -9 -3t-5 -3q-2 -1 -2 -6v-17q8 0 11 -3t3 -8t-3 -8q-2 -2 -11 -4v-35q0 -4 -2 -10q-2 -5 -5 -8q-3 -4 -7 -7q-6 -4 -9 -5q-2 0 -3.5 -0.5t-3.5 -0.5q-2 1 -3 1t-3 1q-3 1 -4 4q-2 1 -2 6t3 8t8 3q3 0 5 3q3 1 3 5v35q-8 0 -11 3
q-3 4 -3 9q0 3 3 8q3 3 11 3v18q0 3 0.5 5.5t1.5 5.5q2 4 6 10q4 4 10 7q6 2 11 2zM103 393q-5 0 -8 3t-3 8v33q0 8 3 16q2 4 4.5 7t4.5 6q7 5 14 8q7 4 16 4q5 0 8 -3q3 -4 4 -8q0 -5 -4 -8q-3 -4 -8 -4t-7 -1t-3.5 -2t-3.5 -2q-1 -2 -2 -3.5t-2 -3.5t-1 -7v-32
q-2 -6 -4 -8q-3 -3 -8 -3zM190 478q8 0 16 -3q4 -2 7.5 -4.5t6.5 -5.5q6 -6 9 -13q4 -10 4 -16q0 -5 -4 -7q-3 -3 -8 -3h-47q6 -10 16 -10q3 0 5 1q2 0 3 1q1 0 1.5 0.5t1.5 0.5t1.5 0.5t1.5 0.5q2 -1 3.5 -1t3.5 -2q3 -1 4 -4q1 -2 1 -7l-3 -6q-5 -4 -11 -5q-8 -2 -12 -2
q-9 0 -16 3q-4 2 -7.5 4.5t-6.5 5.5q-6 6 -9 13q-2 5 -3 8.5t-1 8.5q0 6 4 16q3 7 9 13t14 10q7 3 16 3zM206 446q-4 6 -7 7q-3 2 -9 2t-9 -2q-3 -1 -7 -7h32zM282 478q8 0 17 -3q7 -5 13 -10q5 -6 10 -13q3 -8 3 -16q0 -6 -3 -7q-5 -3 -9 -3h-46q4 -10 15 -10q4 0 5 1
q3 0 4 1q1 0 1.5 0.5t1.5 0.5t1.5 0.5t1.5 0.5q5 -2 6 -3q4 -2 4 -4q2 -4 1 -7q0 -3 -3 -6q-6 -4 -10 -5q-8 -2 -13 -2q-7 0 -16 3q-8 4 -13 10q-6 5 -10 13q-3 9 -3 17t3 16q4 7 10 13q5 5 13 10q7 3 16 3zM298 446q-4 6 -7 7q-2 2 -9 2q-6 0 -9 -2q-2 -1 -6 -7h31z
M419 505q5 0 9 -2q2 -2 4 -9q0 -5 -4 -8q-3 -3 -8 -3q-4 0 -5 -3q-3 -2 -3 -6v-17q9 0 12 -3t3 -8t-3 -8q-2 -2 -12 -4v-35q0 -7 -1 -10q-2 -5 -5 -8q-3 -4 -7 -7q-6 -4 -9 -5q-2 0 -3.5 -0.5t-3.5 -0.5q-2 1 -3 1t-3 1t-5 4q-2 2 -2 6q0 5 4 8q3 3 7 3t6 3q3 1 3 5v35
q-10 0 -11 3q-3 4 -4 9q0 3 3 8q3 3 12 3v18q0 7 2 11q1 3 2.5 5.5t3.5 4.5q4 4 10 7q6 2 11 2zM479 478q8 0 16 -3t14 -9q2 -3 4.5 -6t4.5 -8q3 -8 3 -16q0 -10 -3 -17t-9 -13q-7 -7 -14 -9q-4 -2 -7.5 -3t-8.5 -1q-7 0 -17 4q-5 2 -13 8q-6 6 -9 14q-4 7 -4 17q0 9 4 16
q3 8 8 13q3 3 6.5 5.5t7.5 4.5q7 3 17 3zM479 455q-5 0 -8 -1q-2 -1 -3 -2t-3 -2q-2 -2 -4 -6q-2 -6 -2 -8q0 -4 2 -8t4 -6t3 -2.5t3 -2.5q3 -1 8 -1t7 1q6 4 7 5q1 2 2 3t2 3t1 8q0 8 -5 13q-6 6 -14 6zM541 393q-4 0 -8 3q-3 3 -3 8v33q0 9 4 16q3 7 9 13q5 5 13 8
q7 4 16 4q5 0 8 -3q4 -6 4 -8q0 -5 -3 -8q-4 -4 -9 -4t-7 -1q-3 -1 -6 -4q-1 -1 -5 -7q-1 -2 -1 -7v-32q0 -5 -4 -8q-3 -3 -8 -3zM673 478q8 0 16 -3q9 -4 13 -9q3 -3 5.5 -6.5t4.5 -7.5q3 -8 3 -16q0 -10 -3 -17t-9 -13q-7 -7 -14 -9q-7 -4 -16 -4q-10 0 -20 5v-21
q0 -4 -3 -7q-4 -4 -9 -4q-4 0 -7 3q-4 3 -4 8v59q0 8 3 16q2 4 4.5 7.5t5.5 6.5q3 2 6 4.5t7 4.5q7 3 17 3zM653 436q0 -4 2 -8q2 -5 4 -6q4 -4 6 -5q3 -1 8 -1t7 1q5 3 6 5q4 4 5 6t1 8q0 5 -1 7q-2 2 -2.5 3.5t-2.5 3.5q-3 3 -6 4q-2 1 -7 1q-6 0 -8 -1q-4 -1 -6 -5
q-4 -2 -5 -6q-1 -2 -1 -7zM764 478q8 0 16 -3q7 -5 13 -10q5 -6 10 -13q3 -8 3 -16q0 -6 -3 -7q-3 -3 -9 -3h-46q6 -10 16 -10q3 0 4 1q3 0 4 1q1 0 1.5 0.5t1.5 0.5t1.5 0.5t1.5 0.5q6 -2 7 -3t2 -1.5t2 -2.5t1 -7q-2 -4 -4 -6q-6 -4 -10 -5q-8 -2 -12 -2q-9 0 -16 3
q-8 4 -14 10t-9 13q-4 8 -4 17t4 16q3 7 9 13q5 5 13 10q7 3 17 3zM780 446q-4 5 -7 7t-9 2q-7 0 -9 -2q-3 -1 -7 -7h32zM826 393q-5 0 -8 3q-4 4 -4 8v33q0 9 4 16q3 7 9 13q8 6 13 8q7 4 16 4q4 0 9 -3q3 -5 3 -8q0 -5 -3 -8q-3 -4 -8 -4q-6 0 -8 -1t-3 -2t-3 -2
q-3 -3 -4 -7q-2 -4 -2 -7v-32q0 -5 -3 -8t-8 -3zM932 478q5 0 8 -3t3 -8q0 -4 -4 -8q-3 -3 -7 -3h-30q-2 0 -2.5 -0.5t-1.5 -0.5q-1 -1 -1 -4t1 -4t4 -1h19q3 0 5.5 -0.5t5.5 -1.5q2 -2 4 -3t4 -3t3 -4l2 -4q2 -6 2 -10q0 -3 -0.5 -5.5t-1.5 -5.5q-4 -6 -6 -8t-9 -6
q-6 -2 -11 -2h-32q-5 0 -8 3q-3 4 -3 8q0 5 3 8q3 4 8 4h32q5 0 5 4q0 5 -5 5h-19q-4 0 -10 2q-6 4 -8 6t-3 4.5t-3 4.5q-2 6 -2 9t0.5 5.5t1.5 5.5q4 6 6 8q3 4 8 6q3 2 11 2h31zM998 478q9 0 17 -3q7 -3 13 -9q6 -7 9 -14q4 -7 4 -16q0 -10 -3 -17q-5 -8 -10 -13
q-4 -5 -13 -9q-10 -4 -17 -4q-6 0 -16 4q-7 3 -14 8q-2 3 -4.5 6.5t-4.5 7.5q-3 7 -3 17q0 8 3 16q4 9 9 13q6 6 14 10q7 3 16 3zM998 455q-5 0 -7 -1q-4 -2 -6 -4q-4 -4 -5 -6q-1 -3 -1 -8q0 -6 1 -8t5 -6q1 -2 2.5 -2.5t3.5 -2.5q2 -1 7 -1q6 0 8 1q2 2 3.5 2.5t2.5 2.5
q2 2 4 6q2 2 2 8q0 8 -6 13q-5 6 -14 6zM1093 479q8 0 16 -3q9 -4 13 -9q5 -6 10 -13q3 -8 3 -16v-33q0 -4 -3 -8q-3 -3 -8 -3t-8 3q-4 4 -4 8v31q0 5 -1 8q-2 4 -4 6q-3 2 -7 4t-7 2q-2 0 -8 -2q-4 -2 -6 -4q-2 -1 -4 -6q-2 -4 -2 -7v-32q0 -4 -3 -8q-5 -3 -8 -3q-5 0 -8 3
q-4 3 -4 8v31q0 10 4 17q3 7 9 13q4 5 13 9q7 4 17 4zM1192 478q4 -1 7.5 -2t7.5 -3q7 -3 12 -9q6 -8 8 -13q3 -8 3 -15v-31q0 -5 -4 -8q-3 -4 -8 -4q-6 0 -10 6l-1 -1q-1 0 -1 -1l-9 -3q-2 0 -4.5 -0.5t-5.5 -0.5q-11 0 -23 7q-10 7 -16 19q-2 4 -2 8q-1 3 -1 9t1 8
q0 3 2 9q6 11 16 18t23 7h3h2zM1187 416q2 0 8 2q4 2 6 4q1 1 4 6q2 4 2 8q0 3 -2 7q-2 5 -4 6q-4 4 -6 5q-3 1 -8 1t-7 -1q-3 -1 -7 -5q-3 -3 -4 -6q-1 -2 -1 -7q0 -6 1 -8t5 -6q1 -1 6 -4q4 -2 7 -2zM1252 505q5 0 8 -4q3 -3 3 -8v-69q0 -3 3 -6q1 -2 5 -2t8 -4q4 -3 4 -8
q0 -4 -3 -7t-7 -4h-3q-7 0 -11 3q-3 1 -5.5 2.5t-4.5 3.5q-5 5 -6 10q-3 6 -3 12v70q1 4 4 7q3 4 8 4zM1341 478q3 0 8 -3q3 -3 3 -8v-31q0 -4 2 -8t4 -6t6 -4q6 -2 8 -2t3.5 0.5t3.5 0.5q3 1 6 4q4 4 5 6q1 3 1 8v32q0 4 4 8q3 3 8 3t8 -3q2 -2 4 -8v-31q0 -7 -4 -17
q-3 -7 -9 -13t-13 -9q-8 -4 -17 -4t-16 3q-8 3 -14 9t-9 13q-4 8 -4 16v33q0 4 4 8q3 3 8 3zM1482 478q5 0 8 -3t3 -8q0 -4 -3 -8q-5 -3 -8 -3h-30q-2 0 -2.5 -0.5t-1.5 -0.5q-1 -1 -1 -4t1 -4t4 -1h20q4 0 10 -2q6 -4 8 -6t3 -4l2 -4q2 -6 2 -10q0 -7 -2 -11q-2 -5 -6 -8
q-2 -2 -4 -3t-4 -3q-3 -1 -5.5 -1.5t-5.5 -0.5h-33q-4 0 -8 3q-3 4 -3 8q0 5 3 8q3 4 8 4h32q5 0 5 4q0 5 -5 5h-19q-4 0 -10 2q-6 4 -8 6q-4 6 -5 9q-2 3 -2 9q0 7 2 11q1 4 5 8q5 5 8 6q4 2 11 2h31zM1549 478q8 0 16 -3q7 -5 13 -10q5 -6 10 -13q3 -8 3 -16q0 -6 -3 -7
q-3 -3 -9 -3h-46q6 -10 16 -10q3 0 4 1q3 0 4 1q1 0 1.5 0.5t1.5 0.5t1.5 0.5t1.5 0.5q6 -2 7 -3t2 -1.5t2 -2.5t1 -7q-2 -4 -4 -6q-6 -4 -10 -5q-8 -2 -12 -2q-9 0 -16 3q-8 4 -14 10t-9 13q-4 8 -4 17t4 16q3 7 9 13q5 5 13 10q7 3 17 3zM1565 446q-4 5 -7 7t-9 2
q-7 0 -9 -2q-3 -1 -7 -7h32zM325 335q4 0 6 -2q3 -2 3 -6q0 -2 -2 -6l-6 -3q-4 0 -5 -1q-1 -2 -1 -5v-13q5 0 8 -3q2 -1 2 -6q0 -4 -2 -6t-8 -2v-27q0 -3 -2 -7q-1 -3 -3 -7q-3 -3 -6 -5q-4 -2 -7 -3q-1 -1 -5 -1q-3 0 -4 1q-2 1 -4 3q-1 1 -1 5q0 2 2 6q4 2 6 2q1 0 5 2
q1 1 1 4v27q-6 0 -8 2q-2 4 -2 6q0 5 2 6q1 3 8 3v13q0 3 2 9q1 3 5 7q2 2 7 6q3 1 9 1zM370 315q4 0 12 -2q6 -3 10 -7q3 -3 7 -11q3 -5 3 -12t-3 -13q-2 -5 -7 -10q-2 -3 -10 -7q-8 -2 -12 -2q-5 0 -13 2q-6 3 -10 7t-7 10q-2 4 -2 13q0 8 2 12q3 6 7 10t10 7t13 3z
M370 298q-2 0 -3 -0.5t-3 -0.5q-2 -1 -5 -4q-2 -2 -3 -4t-1 -6t1 -6t1.5 -2.5t1.5 -2.5q2 -1 2.5 -1.5t2.5 -1.5t6 -1t5 1q4 2 5 3q1 2 2 2.5t1 2.5q2 4 2 6q-2 7 -5 10q-5 5 -10 5zM417 251q-4 0 -6 2t-2 3t-1 3v25q0 6 3 12q2 2 3.5 4.5t3.5 4.5q4 4 10 7t12 3q4 0 6 -3
q3 -2 3 -6q0 -2 -2 -6q-4 -2 -7 -2q-1 0 -5 -2q-4 0 -5 -3q-1 -1 -1.5 -2t-1.5 -2q-1 -2 -1 -6v-24q0 -5 -3 -6q-1 -2 -6 -2zM515 315q14 0 23 -9q2 -4 2 -6q0 -5 -3 -6q-1 -2 -6 -2q-4 0 -6 2q-6 4 -10 4q-2 0 -6 -2q-1 0 -4 -3q-2 -1 -4 -5q0 -1 -0.5 -2t-0.5 -3t0.5 -3
t0.5 -3q1 -2 4 -5q1 -1 2 -1.5t2 -1.5q2 -1 6 -1q6 0 10 4q4 2 6 2q4 0 6 -2t2 -3t0.5 -1.5t0.5 -1.5q0 -2 -1 -3q0 -1 -0.5 -1.5t-0.5 -1.5q-2 -2 -5 -3.5t-5 -3.5q-8 -2 -13 -2q-4 0 -12 2q-8 4 -10 7q-6 6 -7 11q-3 4 -3 12q0 6 3 12q1 4 7 10q4 4 10 7t12 3zM579 315
q4 0 12 -2q6 -3 10 -7q3 -3 7 -11q3 -5 3 -12t-3 -13q-2 -2 -3.5 -5t-3.5 -5q-4 -4 -10 -7q-8 -2 -12 -2q-5 0 -13 2q-6 3 -10 7t-7 10t-3 13q0 6 3 12t7 10t10 7t13 3zM579 298q-2 0 -3 -0.5t-3 -0.5q-2 -1 -5 -4q-2 -2 -3 -4t-1 -6t1 -6t1.5 -2.5t1.5 -2.5q2 -1 2.5 -1.5
t2.5 -1.5t6 -1q3 0 5 1q4 2 5 3q1 2 1.5 2.5t1.5 2.5t1 6q0 6 -4 10q-5 5 -10 5zM642 315q2 0 4 -0.5t4 -0.5q4 -2 6 -4q8 5 15 5q3 0 9 -2q4 -2 8 -5q4 -4 5 -7q2 -6 2 -9v-33q0 -3 -3 -6q-4 -2 -6 -2t-6 2q-2 2 -2 6v33q0 2 -2 4t-5 2q-2 0 -4 -2t-2 -4v-33q0 -2 -2 -6
q-4 -2 -7 -2t-5 2q-3 3 -3 6v33q0 2 -2 4t-4 2q-1 0 -5 -2q-1 -1 -1 -5v-32l-1.5 -3l-1.5 -3q-4 -2 -6 -2h-4l-2 2q-2 2 -2 3q-1 1 -1 3v33q0 3 2 9q1 3 5 7q3 3 8 5q4 2 9 2zM727 315q2 0 4 -0.5t4 -0.5q4 -2 7 -4q7 5 15 5q3 0 9 -2q3 -1 7 -5t5 -7q2 -3 2 -9v-33
q0 -4 -2 -6q-4 -2 -6 -2q-4 0 -6 2q-3 3 -3 6v33q0 2 -2 4t-4 2t-4 -2q-2 -1 -2 -4v-33q0 -3 -3 -6q-4 -2 -6 -2t-6 2q-3 3 -3 6v33q0 3 -2 4q-2 2 -4 2t-4 -2t-2 -5v-32q0 -3 -3 -6q-2 -2 -6 -2h-3q-1 1 -1.5 1t-1.5 1t-1 1.5t-1 1.5v3v33q0 6 2 9q2 5 5 7q4 4 7 5q6 2 9 2
zM820 315q6 0 12 -3q8 -4 10 -7q6 -6 8 -10q2 -8 2 -12q0 -2 -2 -6q-4 -2 -7 -1h-35q5 -8 12 -8h4q1 1 2 1l2 1q1 1 3 1q1 0 5 -2q2 -2 3 -4q1 -1 1 -4q-2 -5 -3 -5q-2 -2 -8 -4q-3 -1 -9 -1q-8 0 -12 2q-6 3 -10 7q-6 6 -7 11q-3 4 -3 12q0 6 3 12q1 3 2.5 5.5t3.5 4.5
q3 3 11 7q6 3 12 3zM832 290q-1 4 -5 6t-7 2t-7 -2t-5 -6h24zM867 251q-5 0 -6 2q-3 3 -3 6v25q0 6 3 12q2 2 3.5 4.5t3.5 4.5q4 4 10 7t12 3q4 0 6 -3q3 -2 3 -6q0 -3 -3 -6q-2 -2 -6 -2q-3 0 -5 -2q-4 0 -5 -3q-1 -1 -1.5 -2t-1.5 -2q-1 -2 -1 -6v-24q-2 -5 -3 -6
q-2 -2 -6 -2zM932 315q14 0 23 -9q2 -4 2 -6q0 -5 -3 -6q-1 -2 -6 -2q-4 0 -6 2q-6 4 -10 4q-3 0 -5 -2q-2 0 -5 -3q-3 -2 -3 -5q-2 -2 -2 -5q0 -2 2 -6q0 -2 1 -2.5t2 -2.5q1 -1 5 -3q1 -1 5 -1q7 0 10 4q4 2 6 2q4 0 6 -2t2 -3q1 -1 1 -3v-3q-1 -1 -1 -1.5t-1 -1.5
q-2 -2 -5 -3.5t-5 -3.5q-8 -2 -13 -2q-4 0 -12 2q-6 3 -10 7q-3 3 -7 11q-3 4 -3 12q0 6 3 12t7 10t10 7t12 3zM974 335q3 0 6 -3q2 -4 2 -6t-2 -6q-2 -2 -6 -2q-5 0 -7 2q-2 4 -2 7t3 5q1 3 6 3zM974 315q3 0 5 -3q3 -3 3 -6v-47q0 -2 -2 -6q-2 -2 -3 -2t-3 -1q-4 0 -6 2
q-3 3 -3 6v48q0 4 3 6q1 1 6 3zM1026 315q6 -2 11 -4q6 -4 9 -7q4 -6 6 -10q2 -6 2 -11v-24q0 -3 -3 -6q-2 -2 -6 -2t-7 4q-1 0 -1 -1h-1q-4 -2 -7 -2q-2 -1 -7 -1q-10 0 -18 5q-8 7 -12 14q0 2 -2 6v7v6q2 6 2 7q5 8 12 14q8 5 18 5h2h2zM1022 268q4 0 5 1q4 2 5 3q3 3 3 5
q2 4 2 6q0 3 -2 5q0 3 -3 5q-2 3 -5 3q-2 2 -5 2q-2 0 -6 -2q-2 0 -5 -3q-1 -1 -3 -5q-1 -1 -1 -5t1 -6t4 -5q1 -1 2 -1.5t2 -1.5q2 -1 6 -1zM1071 335q2 0 6 -2q2 -4 2 -7v-52q0 -1 2 -5q1 -1 4 -1q4 0 7 -3q2 -2 2 -6q0 -3 -2 -5q-2 -3 -6 -3h-1q-6 0 -9 2q-3 1 -7 5t-5 7
q-2 3 -2 9v53q0 3 3 6q2 2 6 2zM1138 315q3 0 6 -3q3 -2 3 -6v-23q0 -4 1 -6t1.5 -2.5t1.5 -2.5q1 -1 5 -3q1 -1 5 -1t6 1t2.5 1.5t2.5 1.5q1 1 1.5 2t1.5 2q1 2 1 6v24q0 3 3 6q1 3 6 3q3 0 6 -3q3 -2 3 -5v-24q0 -7 -3 -13t-7 -10t-10 -7q-8 -2 -13 -2q-8 0 -12 2
q-6 3 -10 7t-7 10t-3 12v24q0 4 3 6q1 3 6 3zM1245 315q3 0 6 -3q2 -2 2 -5q0 -5 -3 -6q-2 -3 -5 -3h-23q-2 0 -3 -1q-1 0 -1 -2q0 -3 1 -3q1 -1 3 -1h15q3 0 7 -2q3 -1 7 -5q1 -2 2 -3t2 -3t1 -7t-1 -8q-2 -2 -2.5 -3.5t-2.5 -3.5q-2 -1 -3 -2t-3 -2q-3 -1 -9 -1h-24
q-2 0 -6 2q-3 3 -3 6t3 6q1 3 6 3h24q4 0 4 3q0 4 -4 4h-15q-5 0 -7 1q-2 2 -3 2.5t-3 2.5t-4 6q-2 6 -2 8q0 3 2 7q1 4 4 7q2 2 6 4q6 2 8 2h24zM1295 315q6 0 12 -3q8 -4 10 -7q6 -6 8 -10q2 -8 2 -12q0 -2 -2 -6q-4 -2 -7 -1h-35q5 -8 12 -8h4q1 1 2 1l2 1q1 1 3 1
q1 0 5 -2q2 -2 3 -4q1 -1 1 -4q-2 -5 -3 -5q-2 -2 -8 -4q-3 -1 -9 -1q-8 0 -12 2q-6 3 -10 7q-6 6 -7 11q-3 4 -3 12q0 6 3 12q1 3 2.5 5.5t3.5 4.5q3 3 11 7q6 3 12 3zM1307 290q-1 4 -5 6t-7 2t-7 -2t-5 -6h24zM397 128h-4q-5 -2 -6 -3q-3 -3 -7 -3q-3 0 -6 3q-2 1 -3 6
q0 3 3 6q2 4 11 7q2 1 8 1h9q2 0 4 2q2 3 2 8q-4 -2 -6 -2q-3 -1 -9 -1q-9 0 -13 2q-8 4 -10 7q-4 4 -7 10q-2 4 -2 13q0 8 2 12q3 6 7 10q5 5 10 7q6 3 13 3q6 0 12 -3q4 -1 10 -7q3 -2 7 -10q3 -6 3 -12q0 -8 -4 -16q2 -3 3 -7t1 -10q0 -2 -2 -8q-2 -5 -5 -8q-4 -4 -7 -5
q-3 -2 -9 -2h-4h-1zM393 199q-2 0 -6 -2q-2 0 -2.5 -1t-2.5 -2q-1 -1 -3 -5q-1 -1 -1 -5t1 -6t1.5 -2.5t1.5 -2.5q1 -1 5 -3q2 -1 6 -1t6 1q1 1 2 1.5t2 1.5q3 3 3 5q2 4 2 6t-2 6q-1 1 -1.5 2t-1.5 2q-2 3 -5 3q-4 2 -5 2zM463 216q7 0 13 -3q2 -2 5 -3.5t5 -3.5
q4 -4 7 -10t3 -12q0 -3 -3 -6q-4 -2 -6 -2h-36q4 -7 12 -7h4q1 1 3 1q0 1 2 1q1 0 1 0.5t1 0.5q2 -1 3 -1t2 -1q3 -2 3 -4q1 -1 1 -4t-2 -5q-4 -3 -8 -4q-3 -1 -10 -1q-8 0 -12 2q-6 3 -10 7t-7 10t-3 13q0 6 3 12t7 10t10 7t12 3zM475 191q-1 4 -5 6t-7 2q-2 0 -6 -2
q-3 -2 -6 -6h24zM511 236q5 0 6 -2q3 -3 3 -7v-10h23q4 0 6 -3q3 -3 3 -6t-3 -6t-6 -3h-23v-15q0 -4 1 -5q2 -4 3 -5q3 -3 5 -3q4 -2 6 -2t3 0.5t3 0.5q1 1 2 1.5t2 1.5q2 2 6 2q4 1 7 -2q0 -1 2 -3v-3v-3q0 -1 -2 -3q-4 -4 -10 -7q-4 -2 -12 -2q-9 0 -13 2q-8 4 -11 7
q-4 4 -7 10t-3 13v44q0 3 3 6q2 2 6 2zM630 216q8 -2 11 -4q6 -3 9 -7q5 -5 6 -10q3 -5 3 -11v-24q0 -3 -3 -6q-4 -2 -6 -2q-6 0 -7 4q-1 0 -2 -1h-1l-6 -3h-7q-12 0 -18 5q-8 7 -12 14q-1 2 -1 3t-1 3q0 2 -0.5 3.5t-0.5 3.5t0.5 3t0.5 3q1 2 1 3.5t1 3.5q5 8 12 14
q8 5 18 5h1h2zM626 169q4 0 6 1q4 2 5 3t3 5q1 2 1 6t-1 5q-2 4 -3 5q-3 3 -5 3q-4 2 -6 2q-1 0 -5 -2q-4 0 -5 -3q-1 -1 -3 -5q-1 -1 -1 -5t1 -6t1.5 -2.5t1.5 -2.5q2 -1 2.5 -1.5t2.5 -1.5t5 -1zM705 236q4 0 6 -3q3 -2 3 -6v-52q0 -3 2 -5q1 -1 4 -1t6 -3q3 -2 3 -6
q0 -3 -2 -5q-3 -3 -6 -3h-2q-6 0 -9 1q-2 2 -3.5 3t-3.5 3q-4 4 -5 7q-2 6 -2 9v53q2 4 3 5q3 3 6 3zM743 236q3 0 6 -3q2 -2 2 -6t-2 -6q-3 -3 -6 -3q-2 1 -3.5 1t-2.5 2q-3 1 -3 6q0 4 3 6q3 3 6 3zM743 215q4 0 6 -2q2 -4 2 -6v-47q0 -4 -2 -6q-2 -3 -6 -3q-2 0 -6 2
l-3 6v48q1 4 3 6t6 2zM791 216q14 0 23 -9q2 -4 2 -6q0 -5 -3 -6q-1 -2 -6 -2q-3 -1 -6 2q-6 4 -10 4q-2 0 -6 -2q-1 0 -4 -3q-2 -1 -4 -5q0 -1 -0.5 -2t-0.5 -3t0.5 -3t0.5 -3q1 -2 4 -5q1 -1 5 -3q1 -1 5 -1q5 0 10 3q3 3 6 3q4 0 6 -3q2 0 2 -2q1 -1 1 -3t-1 -3
q0 -1 -0.5 -1.5t-0.5 -1.5q-2 -2 -5 -3.5t-5 -3.5q-4 -2 -13 -2q-4 0 -12 2q-6 3 -10 7q-6 5 -7 10q-3 6 -3 13q0 6 3 12q1 4 7 10q4 4 10 7t12 3zM855 216q6 0 12 -3t10 -7t7 -10t3 -12q0 -3 -3 -6q-2 -2 -6 -2h-35q3 -7 12 -7h3q1 1 3 1q1 1 2 1t1.5 0.5t1.5 0.5
q1 -1 2 -1t2 -1q3 -2 3 -4q1 -1 1 -4t-2 -5q-4 -3 -8 -4q-3 -1 -9 -1q-9 0 -13 2q-2 2 -5 3.5t-5 3.5q-4 4 -7 10q-2 3 -2 6.5v6.5q0 8 2 12q3 6 7 10t10 7t13 3zM867 191q-3 4 -6 6q-4 2 -6 2q-3 0 -7 -2t-5 -6h24zM925 216q5 0 13 -2q2 -2 5 -3.5t5 -3.5t3.5 -4.5
t3.5 -4.5q2 -4 2 -13v-24q0 -5 -2 -6q-3 -3 -6 -3q-2 0 -6 2q-3 3 -3 6v24q0 4 -1 6t-1.5 2.5t-1.5 2.5q-1 1 -5 3q-2 1 -6 1t-5 -1q-4 -2 -5 -3t-3 -5q-1 -1 -1 -5v-24q0 -5 -3 -6q-3 -3 -6 -3q-2 0 -6 2q-3 3 -3 6v24q0 7 3 13q1 4 7 10q2 3 10 7q8 2 12 2zM1009 216
q3 0 6 -3q2 -2 2 -5q0 -5 -3 -6q-2 -3 -5 -3h-23q-2 0 -3 -1t-1 -3t1 -2q1 -1 3 -1h15q3 0 7 -2q3 -1 7 -5q1 -2 2 -3t2 -3t1 -7q0 -6 -2 -8q-2 -5 -4 -7q-2 -1 -3 -2t-3 -2q-3 -1 -9 -1h-24q-4 0 -6 2q-3 3 -3 6t3 6q1 3 6 3h24q4 0 4 3q0 4 -4 4h-15q-5 0 -7 1q-5 2 -6 5
q-2 2 -4 6q-2 6 -2 8q0 3 2 7q1 4 4 7q2 2 6 4q6 2 8 2h24zM1059 216q6 0 12 -3t10 -7q6 -6 8 -10q2 -8 2 -12q0 -2 -2 -6q-4 -2 -7 -2h-35q4 -7 12 -7h4q1 1 2 1l2 1q1 0 1.5 0.5t1.5 0.5q2 -1 2.5 -1t2.5 -1q2 -2 3 -4q1 -1 1 -4q-2 -5 -3 -5q-2 -2 -8 -4q-3 -1 -9 -1
q-8 0 -12 2q-8 4 -10 7q-6 6 -8 10q-2 8 -2 13q0 4 2 12q2 3 3.5 5.5t3.5 4.5q3 3 11 7q6 3 12 3zM1071 191q-1 4 -5 6t-7 2t-7 -2t-5 -6h24zM1163 216q6 -2 11 -4q6 -4 9 -7q4 -6 6 -10q2 -6 2 -11v-24q0 -3 -3 -6q-2 -2 -6 -2t-7 4q-1 0 -1 -1h-1q-2 -1 -3.5 -1.5
t-3.5 -1.5h-7q-12 0 -18 5q-8 7 -12 14q0 2 -2 6v7v6q2 6 2 7q5 8 12 14q8 5 18 5h2h2zM1159 169q4 0 6 1q1 1 2 1.5t2 1.5q3 1 3 5q2 4 2 6q0 3 -2 5q0 3 -3 5q-2 3 -5 3q-2 2 -5 2q-2 0 -6 -2q-2 0 -5 -3q-1 -1 -3 -5q-1 -1 -1 -5t1 -6t4 -5q1 -1 2 -1.5t2 -1.5q2 -1 6 -1
zM1208 236q4 0 6 -2q3 -3 3 -7v-10h23q3 0 6 -3q2 -4 2 -6t-2 -6q-3 -3 -6 -3h-23v-15q0 -4 1 -5q2 -4 3 -5q1 -3 5 -3q4 -2 6 -2t3 0.5t3 0.5q1 1 2 1.5t2 1.5q2 2 6 2q3 1 6 -2q2 -2 2 -3q1 -1 1 -3v-3q-1 -1 -1 -1.5t-1 -1.5q-2 -2 -5 -3.5t-5 -3.5q-4 -2 -12 -2
q-9 0 -13 2q-8 4 -11 7q-6 6 -7 10q-3 6 -3 13v44q0 3 3 6q1 2 6 2zM380 614q0 2 1 3t3 1t2 -1q1 -1 1 -3v-15h27q3 0 4 -1q0 -1 0.5 -1.5t0.5 -1.5l-1 -2q-1 -1 -4 -1h-27v-23q0 -4 2 -8q1 -3 5 -7t7 -5q4 -2 8 -2q3 0 9 2q2 1 3.5 1.5t3.5 2.5q0 2 2 2t3 -1t1 -3v-2
q-4 -4 -10 -7q-4 -2 -12 -2t-11 2q-3 1 -5.5 2.5t-4.5 3.5q-4 6 -6 10q-2 6 -2 11v45zM444 614q0 2 1 3t2 1q2 0 3 -1t1 -3v-25q5 5 9 7q4 3 12 3q5 0 11 -2q6 -3 9 -6q5 -5 6 -10q2 -6 2 -11v-27q0 -2 -1 -2q-1 -1 -3 -1t-2 1q-1 0 -1 2v27q0 3 -2 9q-2 4 -4 6q-4 4 -7 5
q-2 1 -8 1t-8 -1q-3 -1 -7 -5q-3 -3 -4 -7q-2 -4 -2 -8v-27q0 -2 -1 -2q-1 -1 -3 -1q-1 0 -2 1q-1 0 -1 2v71zM512 613q0 1 2 3t3 2q2 0 4 -2q1 -1 1 -3q0 -3 -1 -4t-4 -1q-2 0 -3 1q-2 2 -2 4zM514 595q0 2 1 3q0 1 2 1t3 -1t1 -3v-52q0 -2 -1 -2q-1 -1 -3 -1t-2 1
q-1 0 -1 2v52zM536 543q0 2 1 3t3 1h26q4 0 6 3q3 1 3 6q0 3 -3 6q-2 3 -6 3h-14q-5 0 -7 1q-4 2 -5 4q-2 1 -4 5q-1 2 -1 7q0 4 1 6q2 4 4 6q3 3 5 4q2 0 3.5 0.5t3.5 0.5h25l2 -1q1 -1 1 -3t-1 -3t-2 -1h-25q-4 0 -7 -3t-3 -6q0 -4 3 -7t7 -3h14q5 0 7 -1t5 -4q1 -1 3 -5
t2 -6t-2 -6l-3 -6q-2 -1 -2.5 -1.5t-2.5 -1.5t-7 -1h-26q-2 0 -3 1q-1 0 -1 2zM620 614q0 2 1 3t3 1t2 -1q1 -1 1 -3v-15h27q3 0 4 -1q0 -1 0.5 -1.5t0.5 -1.5l-1 -2q-1 -1 -4 -1h-27v-23q0 -4 2 -8q1 -3 5 -7t7 -5q4 -2 8 -2q3 0 9 2q2 1 3.5 1.5t3.5 2.5q0 2 2 2t3 -1
t1 -3v-2q-4 -4 -10 -7q-4 -2 -12 -2t-11 2q-3 1 -5.5 2.5t-4.5 3.5q-4 6 -6 10q-2 6 -2 11v45zM684 595q0 2 1 3t2 1t1.5 -0.5t1.5 -0.5q1 -1 1 -3v-27q0 -4 2 -8q1 -5 4 -7q2 -3 7 -4q4 -2 8 -2t8 2q4 1 7 4q2 2 4 7q2 4 2 8v27q0 2 1 3t2 1t1.5 -0.5t1.5 -0.5q1 -1 1 -3
v-27q0 -4 -2 -10q-1 -5 -5 -9q-3 -4 -8 -6q-5 -3 -9 -3v-15q0 -1 -2 -3q0 -1 -2 -1t-3 1t-1 3v15q-6 0 -10 3q-2 1 -4 2.5t-4 3.5t-2.5 4.5t-2.5 4.5q-1 3 -1 10v27zM752 595q0 1 0.5 1.5t0.5 1.5q1 0 1.5 0.5t1.5 0.5t1.5 -0.5t1.5 -0.5q1 -1 1 -3v-6q4 4 10 7q4 3 12 3
q6 0 11 -3q5 -1 10 -6l6 -9q2 -4 2 -12t-2 -11q-3 -6 -7 -10q-3 -3 -9 -6q-3 -2 -11 -2q-5 0 -7 1q-2 0 -6 2t-6 4t-3 4v-27q0 -2 -1 -2q-1 -1 -3 -1t-3 1t-1 2v71zM760 569q0 -6 2 -8q1 -5 4 -7q2 -2 3.5 -3t3.5 -2q6 -2 9 -2q4 0 8 2q3 1 7 5t5 7q2 4 2 8q0 3 -2 9
q-2 4 -5 7q-3 2 -7 4q-2 2 -8 2t-9 -1q-2 -2 -3 -2.5t-3 -2.5q-4 -4 -5 -7q-2 -4 -2 -8v-1zM831 566q1 -2 1.5 -4t1.5 -4q2 -3 5 -5q2 -2 6 -4q6 -2 8 -2q4 0 8 2q3 1 7 5q1 0 1.5 0.5t1.5 0.5t1.5 -0.5t1.5 -0.5q1 -1 1 -3t-1 -3q-5 -5 -9 -6q-4 -2 -12 -2q-5 0 -11 2
q-3 1 -5.5 2.5t-4.5 3.5t-3.5 4.5t-2.5 4.5q-2 4 -2 12t2 12q1 4 6 9q4 4 9 6q6 3 12 3q5 0 11 -2q6 -3 10 -7q2 -2 3.5 -4.5t2.5 -4.5q3 -6 3 -12q0 -2 -2 -2q0 -1 -2 -1h-48zM875 573q-1 3 -3 7q-1 2 -2 3l-3 3t-6 4q-3 1 -8 1t-8 -1q-4 -2 -6 -4l-3 -3t-2 -3q-2 -4 -2 -7
h43zM904 602q0 4 1 6t1.5 2.5t1.5 2.5q2 1 2.5 2t2.5 1q4 2 7 2l2 -1q2 -2 2 -3t-2 -3q0 -1 -2 -1q-4 0 -6 -2q-3 -3 -3 -6v-22h9l2 -2q1 0 1 -2t-1 -3t-2 -1h-9v-29q0 -2 -1 -2q-1 -1 -3 -1t-2 1q-1 0 -1 2v29h-5q-2 0 -3 1t-1 3t1 2q2 2 3 2h5v22zM987 551q-2 -4 -9 -8
q-6 -3 -13 -3q-8 0 -11 2q-5 1 -10 6l-6 9q-2 8 -2 12t2 12l6 9q5 5 10 6q4 3 11 3q6 0 12 -3q4 -2 9 -6q5 -5 6 -10q3 -5 3 -11v-26l-1 -2q-2 -2 -3 -2t-3 2q-1 1 -1 2v8zM987 569q0 6 -1 9q-2 2 -2.5 3.5t-2.5 3.5t-3.5 2.5t-3.5 1.5q-3 2 -9 2t-8 -2q-5 -2 -7 -4
q-3 -3 -5 -7q-2 -6 -2 -9q0 -4 2 -8q1 -3 5 -7t7 -5q4 -2 8 -2q3 0 9 2q2 1 6 5q3 1 5 6q2 6 2 9zM1052 585q-1 1 -7 5q-3 1 -8 1q-6 0 -9 -2q-5 -2 -7 -4q-3 -3 -5 -7q-1 -3 -1 -9t1 -8q1 -3 5 -7t7 -5q2 -1 4 -1.5t5 -0.5q2 0 8 2q3 1 7 5q1 0 1.5 0.5t1.5 0.5l2 -1
q1 -1 1 -3t-1 -3l-3 -3q-2 -2 -5 -2q-1 -1 -5 -3h-7q-8 0 -12 2q-6 2 -9 6q-3 3 -7 9q-2 8 -2 12q0 5 2 11q3 6 7 10q5 5 9 6q6 3 12 3q2 0 3.5 -0.5t3.5 -0.5q2 -1 2.5 -1t2.5 -1t2.5 -1.5t2.5 -1.5l3 -3q1 -1 1 -2q0 -2 -1 -3q0 -1 -2 -1t-3 1zM1076 566q1 -2 1.5 -4
t1.5 -4q2 -3 5 -5q2 -2 6 -4q6 -2 8 -2q4 0 8 2q3 1 7 5q1 0 1.5 0.5t1.5 0.5t1.5 -0.5t1.5 -0.5q0 -1 0.5 -1.5t0.5 -1.5t-0.5 -1.5t-0.5 -1.5q-5 -5 -9 -6q-4 -2 -12 -2q-4 0 -12 2q-2 1 -4.5 2.5t-4.5 3.5q-5 4 -6 9q-3 6 -3 12t3 12q1 4 6 9q4 4 9 6q6 3 12 3q5 0 11 -2
q6 -3 10 -7l6 -9q2 -4 2 -12q0 -2 -1 -2q-1 -1 -2 -1h-48zM1120 573q-1 3 -3 7q-1 2 -2 3l-3 3t-6 4q-3 1 -8 1t-8 -1q-4 -2 -6 -4l-3 -3t-2 -3q-2 -4 -3 -7h44zM1165 613q0 2 1 3q2 2 4 2q1 0 3 -2t2 -3q0 -2 -2 -4q-1 -1 -3 -1q-3 0 -4 1t-1 4zM1166 595q0 2 1 3t3 1t2 -1
q2 -2 2 -3v-52q0 -2 -2 -2q0 -1 -2 -1t-3 1q-1 0 -1 2v52zM1188 543q0 1 0.5 1.5t0.5 1.5q1 1 3 1h27q3 0 6 3q2 2 2 6q0 2 -2 6q-3 3 -6 3h-15q-4 0 -7 1q-2 1 -5 4q-2 1 -4 5q-1 2 -1 7q0 4 1 6q2 4 4 6q2 1 2.5 2t2.5 2q2 0 3.5 0.5t3.5 0.5h25q1 0 1.5 -0.5t1.5 -0.5
q0 -1 0.5 -1.5t0.5 -1.5t-0.5 -1.5t-0.5 -1.5q-1 0 -1.5 -0.5t-1.5 -0.5h-25q-4 0 -7 -3q-2 -4 -2 -6q0 -3 2 -7q3 -3 7 -3h15q4 0 6 -1q4 -2 5 -4q2 -1 4 -5q0 -2 0.5 -3t0.5 -3t-0.5 -3t-0.5 -3q-2 -4 -4 -6q-1 -1 -5 -3q-2 -1 -6 -1h-27q-2 0 -3 1t-1 2zM328 76q0 2 3 2
q2 0 3 -1q1 0 1 -2v-2l-22 -49l-1 -2l-2 -1q-2 0 -3 1t-1 2l-13 29l-13 -29q0 -2 -1 -2q-1 -1 -2 -1q-2 0 -2 1l-2 2l-21 49v2q0 2 1 2q0 1 2 1h2l2 -2l18 -41l18 41q1 2 4 2q2 0 2 -1q1 0 1 -2v-2l-5 -10l13 -28zM425 76q1 2 4 2q2 0 3 -1v-2v-2l-21 -49l-2 -2q0 -1 -2 -1
q-1 0 -2 1q-1 0 -1 2l-13 29l-13 -29l-1 -2q-1 -1 -3 -1q-1 0 -2 1t-1 2l-21 49q-1 1 -1 2l1 2q1 1 3 1h2q1 -1 1 -2l18 -41l19 41q0 2 3 2q2 0 3 -1t1 -2t-1 -2l-4 -10l12 -28zM523 76q1 2 3 2t3 -1q1 0 1 -2v-2l-22 -49l-1 -2l-2 -1q-2 0 -2 1q-2 0 -2 2l-13 29l-12 -29
l-2 -2q0 -1 -2 -1q-1 0 -2 1q-1 0 -1 2l-22 49v2q0 2 1 2q0 1 2 1h2l2 -2l18 -41l18 41q1 2 4 2q2 0 2 -1q1 0 1 -2v-2l-5 -10l13 -28zM542 26q0 2 1 3t4 1q2 0 3 -1q2 -2 2 -3q0 -2 -2 -4q-1 -1 -3 -1q-3 0 -4 1t-1 4zM567 71q-2 0 -2 1q-1 1 -1 3t1 2q0 1 2 1h47q1 0 2 -1
q1 0 1 -2t-1 -3l-40 -44h38q2 0 2 -1q1 -1 1 -3t-1 -2q0 -1 -2 -1h-47q-2 0 -3 1t-1 2t0.5 1.5t0.5 1.5l41 44h-38zM636 46q2 -6 3 -7q2 -4 4 -6q4 -2 7 -3q4 -2 7 -2q4 0 8 2q4 1 7 4q1 1 3 1t2 -1q1 0 1 -2t-1 -3q-3 -5 -9 -6q-6 -2 -11 -2t-11 2q-5 1 -9 6q-5 4 -6 9
q-2 4 -2 11q0 8 2 12q1 4 6 9q3 3 9 6q6 2 11 2q8 0 11 -2q3 -1 5 -2.5t4 -3.5q3 -3 7 -9q1 -3 1.5 -5.5t0.5 -5.5q0 -2 -0.5 -2t-0.5 -1q-1 -1 -3 -1h-46zM678 53q0 3 -2 7q-2 2 -2.5 3t-2.5 3q-2 1 -3 2t-3 2q-2 0 -4 0.5t-4 0.5t-3.5 -0.5t-3.5 -0.5q-2 -1 -3.5 -2
t-3.5 -2q-1 -2 -2 -3t-2 -3q-2 -4 -3 -7h42zM698 93q0 2 1 3q1 0 1 0.5t1 0.5t1.5 -0.5t1.5 -0.5q1 -1 1 -3v-14h26q1 0 1 -0.5t1 -0.5h1q2 -2 2 -3t-2 -3l-1 -1h-2h-26v-22q0 -2 2 -8q1 -5 4 -7q2 -2 3.5 -2.5t3.5 -1.5q6 -2 8 -2q3 0 9 2q4 2 6 4q1 1 3 1h2q2 -2 2 -3
q0 -2 -1 -3l-9 -6q-4 -2 -12 -2q-7 0 -11 2q-5 1 -9 6l-6 9q-1 3 -1.5 5.5t-0.5 5.5v44zM810 32q-2 -4 -9 -8q-6 -3 -12 -3q-5 0 -11 2q-6 1 -9 6q-4 2 -7 9q-2 6 -2 11q0 4 2 12l6 9q6 4 10 6q6 2 11 2q3 0 5.5 -0.5t5.5 -1.5l9 -6q5 -5 6 -10q3 -5 3 -11v-25q0 -2 -2 -2
q0 -1 -2 -1t-3 1t-1 2v8zM810 49q0 6 -1 9q-2 2 -2.5 3.5t-2.5 3.5q-3 2 -7 4q-6 2 -8 2q-4 0 -8 -2q-5 -2 -7 -4q-3 -3 -5 -7q-1 -3 -1 -9q0 -5 1 -8q2 -4 5 -7q2 -3 7 -4q4 -2 8 -2q2 0 8 2q2 1 3.5 1.5t3.5 2.5t4 7q2 6 2 8zM840 81q0 2 2 6q0 3 3 5q3 3 5 3q4 2 6 2
q1 0 1.5 -0.5t1.5 -0.5q0 -1 0.5 -1.5t0.5 -1.5t-0.5 -1.5t-0.5 -1.5q-1 0 -1.5 -0.5t-1.5 -0.5q-2 0 -6 -2q-2 -4 -2 -6v-21h8q2 0 2 -2q1 0 1 -2t-1 -3t-2 -1h-8v-28l-1 -2q-1 -1 -3 -1t-3 1t-1 2v28h-5q-1 0 -1 0.5t-1 0.5q-1 1 -1 3t1 2l2 2h5v21zM903 78q3 0 5.5 -0.5
t5.5 -1.5l9 -6q2 -2 3.5 -4.5t2.5 -5.5q2 -3 2 -11q0 -7 -2 -11q-2 -5 -6 -9l-9 -6q-3 -1 -5.5 -1.5t-5.5 -0.5q-5 0 -11 2q-5 1 -10 6q-3 3 -6 9q-2 6 -2 11t2 11q3 6 6 9t9 7q8 2 12 2zM881 49q0 -2 2 -8q2 -4 5 -7q2 -2 6 -4q6 -2 9 -2q2 0 8 2q4 1 7 4q2 2 2.5 3.5
t1.5 3.5q2 6 2 8q0 3 -2 9q-1 2 -1.5 3.5t-2.5 3.5q-3 2 -7 4q-6 2 -8 2q-3 0 -9 -2q-4 -2 -6 -4q-3 -3 -5 -7q-2 -6 -2 -9zM946 50q0 8 2 11q1 5 5 9t9 6q3 2 11 2t11 -2q4 -2 9 -6q4 -4 5 -9q3 -5 3 -11v-26q0 -2 -2 -2q0 -1 -2 -1t-3 1t-1 2v26q0 6 -1 9q-1 2 -2 3t-2 3
q-3 2 -7 4q-2 2 -8 2t-8 -2q-5 -3 -6 -4q-4 -4 -5 -6q-1 -3 -1 -9v-26q0 -2 -1 -2q-1 -1 -3 -1t-2 1q-1 0 -1 2v26zM1015 93q0 2 1 3q1 0 1 0.5t1 0.5t1.5 -0.5t1.5 -0.5q1 -1 1 -3v-14h26q1 0 1 -0.5t1 -0.5h1q2 -2 2 -3t-2 -3l-1 -1h-2h-26v-22q0 -2 2 -8q1 -5 4 -7
q2 -2 3.5 -2.5t3.5 -1.5q6 -2 8 -2q3 0 9 2q4 2 6 4q1 1 3 1h2q2 -2 2 -3q0 -2 -1 -3l-9 -6q-4 -2 -12 -2q-7 0 -11 2q-5 1 -9 6l-6 9q-1 3 -1.5 5.5t-0.5 5.5v44zM1080 24q0 1 0.5 1.5t0.5 1.5q1 1 3 1h26q3 0 6 3q2 1 2 5q0 5 -2 6q-3 3 -6 3h-14q-5 0 -7 1t-5 4t-4 5
q0 2 -0.5 3.5t-0.5 3.5t0.5 3t0.5 3q1 2 4 5t5 4t7 1h24q2 0 3 -1t1 -2t-0.5 -1.5t-0.5 -1.5q-1 -1 -3 -1h-24q-4 0 -7 -3q-2 -2 -2 -6q0 -5 2 -7q3 -3 7 -3h14q4 0 6 -1q4 -2 5 -3q3 -3 4 -5q0 -2 0.5 -3.5t0.5 -3.5t-0.5 -3t-0.5 -3q-1 -2 -4 -5q-1 -1 -5 -3q-2 -1 -6 -1
h-26q-2 0 -3 1t-1 2zM1138 26q0 2 1 3t3 1q3 0 4 -1t1 -3q0 -3 -1 -4t-4 -1q-2 0 -3 1t-1 4zM1203 65q-3 2 -7 4q-6 2 -8 2q-4 0 -8 -2q-5 -2 -7 -4q-3 -3 -5 -7q-1 -3 -1 -9q0 -5 1 -8q2 -4 5 -7q2 -3 7 -4q4 -2 8 -2q2 0 8 2q4 1 7 4q0 1 2 1t3 -1q1 0 1 -2t-0.5 -2
t-0.5 -1l-3 -3q-4 -2 -5 -2q-2 -2 -5 -2q-2 -1 -7 -1t-11 2q-6 1 -9 6q-4 2 -7 9q-2 6 -2 11t2 11q3 6 6 9q4 4 10 7q6 2 11 2t7 -1q1 0 5 -2l4 -2q3 -2 3 -3l2 -2q0 -2 -1 -3t-3 -1t-2 1zM1250 78q3 0 5.5 -0.5t5.5 -1.5l9 -6q5 -5 6 -10q3 -5 3 -11q0 -5 -3 -11
q-2 -5 -6 -9q-3 -3 -9 -6q-6 -2 -11 -2t-11 2q-6 1 -9 6q-4 2 -7 9q-2 6 -2 11t2 11q3 6 6 9q4 4 10 7q6 2 11 2zM1229 49q0 -5 1 -8q2 -4 5 -7q2 -3 7 -4q4 -2 8 -2q2 0 8 2q4 1 7 4q2 2 2.5 3.5t2.5 3.5q1 3 1 8q0 6 -1 9q-2 2 -2.5 3.5t-2.5 3.5q-3 2 -7 4q-6 2 -8 2
q-4 0 -8 -2q-5 -2 -7 -4q-3 -3 -5 -7q-1 -3 -1 -9zM1324 59q0 4 -3 9q-5 3 -9 3q-3 0 -5 -1l-3 -3l-3 -3q-1 -2 -1 -5v-35q0 -2 -1 -2q-1 -1 -3 -1q-1 0 -2 1q-1 0 -1 2v35q0 5 1 7t2 3.5t2 3.5q2 1 3.5 2t3.5 2t7 1q7 0 9 -2q4 -1 7 -6q3 5 7 6q2 2 9 2q5 0 7 -1q3 -1 6 -4
q4 -4 5 -7q1 -2 1 -7v-35q0 -2 -1 -2q-1 -1 -3 -1q-1 0 -2 1q-1 0 -1 2v35q0 1 -0.5 2t-0.5 3l-3 3q-2 2 -4 3q-1 1 -4 1q-4 0 -5 -1q-2 -1 -4 -3t-2 -3q-1 -2 -1 -5v-35l-1 -2q-1 -1 -3 -1t-3 1t-1 2v35z" />
    <glyph glyph-name="one" unicode="1" horiz-adv-x="1630" 
d="M72 505q5 0 9 -2q4 -4 4 -9t-3 -8q-5 -3 -9 -3t-5 -3q-2 -1 -2 -6v-17q8 0 11 -3t3 -8t-3 -8q-2 -2 -11 -4v-35q0 -4 -2 -10q-2 -5 -5 -8q-3 -4 -7 -7q-6 -4 -9 -5q-2 0 -3.5 -0.5t-3.5 -0.5q-2 1 -3 1t-3 1q-3 1 -4 4q-2 1 -2 6t3 8t8 3q3 0 5 3q3 1 3 5v35q-8 0 -11 3
q-3 4 -3 9q0 3 3 8q3 3 11 3v18q0 3 0.5 5.5t1.5 5.5q2 4 6 10q4 4 10 7q6 2 11 2zM103 393q-5 0 -8 3t-3 8v33q0 8 3 16q2 4 4.5 7t4.5 6q7 5 14 8q7 4 16 4q5 0 8 -3q3 -4 4 -8q0 -5 -4 -8q-3 -4 -8 -4t-7 -1t-3.5 -2t-3.5 -2q-1 -2 -2 -3.5t-2 -3.5t-1 -7v-32
q-2 -6 -4 -8q-3 -3 -8 -3zM190 478q8 0 16 -3q4 -2 7.5 -4.5t6.5 -5.5q6 -6 9 -13q4 -10 4 -16q0 -5 -4 -7q-3 -3 -8 -3h-47q6 -10 16 -10q3 0 5 1q2 0 3 1q1 0 1.5 0.5t1.5 0.5t1.5 0.5t1.5 0.5q2 -1 3.5 -1t3.5 -2q3 -1 4 -4q1 -2 1 -7l-3 -6q-5 -4 -11 -5q-8 -2 -12 -2
q-9 0 -16 3q-4 2 -7.5 4.5t-6.5 5.5q-6 6 -9 13q-2 5 -3 8.5t-1 8.5q0 6 4 16q3 7 9 13t14 10q7 3 16 3zM206 446q-4 6 -7 7q-3 2 -9 2t-9 -2q-3 -1 -7 -7h32zM282 478q8 0 17 -3q7 -5 13 -10q5 -6 10 -13q3 -8 3 -16q0 -6 -3 -7q-5 -3 -9 -3h-46q4 -10 15 -10q4 0 5 1
q3 0 4 1q1 0 1.5 0.5t1.5 0.5t1.5 0.5t1.5 0.5q5 -2 6 -3q4 -2 4 -4q2 -4 1 -7q0 -3 -3 -6q-6 -4 -10 -5q-8 -2 -13 -2q-7 0 -16 3q-8 4 -13 10q-6 5 -10 13q-3 9 -3 17t3 16q4 7 10 13q5 5 13 10q7 3 16 3zM298 446q-4 6 -7 7q-2 2 -9 2q-6 0 -9 -2q-2 -1 -6 -7h31z
M419 505q5 0 9 -2q2 -2 4 -9q0 -5 -4 -8q-3 -3 -8 -3q-4 0 -5 -3q-3 -2 -3 -6v-17q9 0 12 -3t3 -8t-3 -8q-2 -2 -12 -4v-35q0 -7 -1 -10q-2 -5 -5 -8q-3 -4 -7 -7q-6 -4 -9 -5q-2 0 -3.5 -0.5t-3.5 -0.5q-2 1 -3 1t-3 1t-5 4q-2 2 -2 6q0 5 4 8q3 3 7 3t6 3q3 1 3 5v35
q-10 0 -11 3q-3 4 -4 9q0 3 3 8q3 3 12 3v18q0 7 2 11q1 3 2.5 5.5t3.5 4.5q4 4 10 7q6 2 11 2zM479 478q8 0 16 -3t14 -9q2 -3 4.5 -6t4.5 -8q3 -8 3 -16q0 -10 -3 -17t-9 -13q-7 -7 -14 -9q-4 -2 -7.5 -3t-8.5 -1q-7 0 -17 4q-5 2 -13 8q-6 6 -9 14q-4 7 -4 17q0 9 4 16
q3 8 8 13q3 3 6.5 5.5t7.5 4.5q7 3 17 3zM479 455q-5 0 -8 -1q-2 -1 -3 -2t-3 -2q-2 -2 -4 -6q-2 -6 -2 -8q0 -4 2 -8t4 -6t3 -2.5t3 -2.5q3 -1 8 -1t7 1q6 4 7 5q1 2 2 3t2 3t1 8q0 8 -5 13q-6 6 -14 6zM541 393q-4 0 -8 3q-3 3 -3 8v33q0 9 4 16q3 7 9 13q5 5 13 8
q7 4 16 4q5 0 8 -3q4 -6 4 -8q0 -5 -3 -8q-4 -4 -9 -4t-7 -1q-3 -1 -6 -4q-1 -1 -5 -7q-1 -2 -1 -7v-32q0 -5 -4 -8q-3 -3 -8 -3zM673 478q8 0 16 -3q9 -4 13 -9q3 -3 5.5 -6.5t4.5 -7.5q3 -8 3 -16q0 -10 -3 -17t-9 -13q-7 -7 -14 -9q-7 -4 -16 -4q-10 0 -20 5v-21
q0 -4 -3 -7q-4 -4 -9 -4q-4 0 -7 3q-4 3 -4 8v59q0 8 3 16q2 4 4.5 7.5t5.5 6.5q3 2 6 4.5t7 4.5q7 3 17 3zM653 436q0 -4 2 -8q2 -5 4 -6q4 -4 6 -5q3 -1 8 -1t7 1q5 3 6 5q4 4 5 6t1 8q0 5 -1 7q-2 2 -2.5 3.5t-2.5 3.5q-3 3 -6 4q-2 1 -7 1q-6 0 -8 -1q-4 -1 -6 -5
q-4 -2 -5 -6q-1 -2 -1 -7zM764 478q8 0 16 -3q7 -5 13 -10q5 -6 10 -13q3 -8 3 -16q0 -6 -3 -7q-3 -3 -9 -3h-46q6 -10 16 -10q3 0 4 1q3 0 4 1q1 0 1.5 0.5t1.5 0.5t1.5 0.5t1.5 0.5q6 -2 7 -3t2 -1.5t2 -2.5t1 -7q-2 -4 -4 -6q-6 -4 -10 -5q-8 -2 -12 -2q-9 0 -16 3
q-8 4 -14 10t-9 13q-4 8 -4 17t4 16q3 7 9 13q5 5 13 10q7 3 17 3zM780 446q-4 5 -7 7t-9 2q-7 0 -9 -2q-3 -1 -7 -7h32zM826 393q-5 0 -8 3q-4 4 -4 8v33q0 9 4 16q3 7 9 13q8 6 13 8q7 4 16 4q4 0 9 -3q3 -5 3 -8q0 -5 -3 -8q-3 -4 -8 -4q-6 0 -8 -1t-3 -2t-3 -2
q-3 -3 -4 -7q-2 -4 -2 -7v-32q0 -5 -3 -8t-8 -3zM932 478q5 0 8 -3t3 -8q0 -4 -4 -8q-3 -3 -7 -3h-30q-2 0 -2.5 -0.5t-1.5 -0.5q-1 -1 -1 -4t1 -4t4 -1h19q3 0 5.5 -0.5t5.5 -1.5q2 -2 4 -3t4 -3t3 -4l2 -4q2 -6 2 -10q0 -3 -0.5 -5.5t-1.5 -5.5q-4 -6 -6 -8t-9 -6
q-6 -2 -11 -2h-32q-5 0 -8 3q-3 4 -3 8q0 5 3 8q3 4 8 4h32q5 0 5 4q0 5 -5 5h-19q-4 0 -10 2q-6 4 -8 6t-3 4.5t-3 4.5q-2 6 -2 9t0.5 5.5t1.5 5.5q4 6 6 8q3 4 8 6q3 2 11 2h31zM998 478q9 0 17 -3q7 -3 13 -9q6 -7 9 -14q4 -7 4 -16q0 -10 -3 -17q-5 -8 -10 -13
q-4 -5 -13 -9q-10 -4 -17 -4q-6 0 -16 4q-7 3 -14 8q-2 3 -4.5 6.5t-4.5 7.5q-3 7 -3 17q0 8 3 16q4 9 9 13q6 6 14 10q7 3 16 3zM998 455q-5 0 -7 -1q-4 -2 -6 -4q-4 -4 -5 -6q-1 -3 -1 -8q0 -6 1 -8t5 -6q1 -2 2.5 -2.5t3.5 -2.5q2 -1 7 -1q6 0 8 1q2 2 3.5 2.5t2.5 2.5
q2 2 4 6q2 2 2 8q0 8 -6 13q-5 6 -14 6zM1093 479q8 0 16 -3q9 -4 13 -9q5 -6 10 -13q3 -8 3 -16v-33q0 -4 -3 -8q-3 -3 -8 -3t-8 3q-4 4 -4 8v31q0 5 -1 8q-2 4 -4 6q-3 2 -7 4t-7 2q-2 0 -8 -2q-4 -2 -6 -4q-2 -1 -4 -6q-2 -4 -2 -7v-32q0 -4 -3 -8q-5 -3 -8 -3q-5 0 -8 3
q-4 3 -4 8v31q0 10 4 17q3 7 9 13q4 5 13 9q7 4 17 4zM1192 478q4 -1 7.5 -2t7.5 -3q7 -3 12 -9q6 -8 8 -13q3 -8 3 -15v-31q0 -5 -4 -8q-3 -4 -8 -4q-6 0 -10 6l-1 -1q-1 0 -1 -1l-9 -3q-2 0 -4.5 -0.5t-5.5 -0.5q-11 0 -23 7q-10 7 -16 19q-2 4 -2 8q-1 3 -1 9t1 8
q0 3 2 9q6 11 16 18t23 7h3h2zM1187 416q2 0 8 2q4 2 6 4q1 1 4 6q2 4 2 8q0 3 -2 7q-2 5 -4 6q-4 4 -6 5q-3 1 -8 1t-7 -1q-3 -1 -7 -5q-3 -3 -4 -6q-1 -2 -1 -7q0 -6 1 -8t5 -6q1 -1 6 -4q4 -2 7 -2zM1252 505q5 0 8 -4q3 -3 3 -8v-69q0 -3 3 -6q1 -2 5 -2t8 -4q4 -3 4 -8
q0 -4 -3 -7t-7 -4h-3q-7 0 -11 3q-3 1 -5.5 2.5t-4.5 3.5q-5 5 -6 10q-3 6 -3 12v70q1 4 4 7q3 4 8 4zM1341 478q3 0 8 -3q3 -3 3 -8v-31q0 -4 2 -8t4 -6t6 -4q6 -2 8 -2t3.5 0.5t3.5 0.5q3 1 6 4q4 4 5 6q1 3 1 8v32q0 4 4 8q3 3 8 3t8 -3q2 -2 4 -8v-31q0 -7 -4 -17
q-3 -7 -9 -13t-13 -9q-8 -4 -17 -4t-16 3q-8 3 -14 9t-9 13q-4 8 -4 16v33q0 4 4 8q3 3 8 3zM1482 478q5 0 8 -3t3 -8q0 -4 -3 -8q-5 -3 -8 -3h-30q-2 0 -2.5 -0.5t-1.5 -0.5q-1 -1 -1 -4t1 -4t4 -1h20q4 0 10 -2q6 -4 8 -6t3 -4l2 -4q2 -6 2 -10q0 -7 -2 -11q-2 -5 -6 -8
q-2 -2 -4 -3t-4 -3q-3 -1 -5.5 -1.5t-5.5 -0.5h-33q-4 0 -8 3q-3 4 -3 8q0 5 3 8q3 4 8 4h32q5 0 5 4q0 5 -5 5h-19q-4 0 -10 2q-6 4 -8 6q-4 6 -5 9q-2 3 -2 9q0 7 2 11q1 4 5 8q5 5 8 6q4 2 11 2h31zM1549 478q8 0 16 -3q7 -5 13 -10q5 -6 10 -13q3 -8 3 -16q0 -6 -3 -7
q-3 -3 -9 -3h-46q6 -10 16 -10q3 0 4 1q3 0 4 1q1 0 1.5 0.5t1.5 0.5t1.5 0.5t1.5 0.5q6 -2 7 -3t2 -1.5t2 -2.5t1 -7q-2 -4 -4 -6q-6 -4 -10 -5q-8 -2 -12 -2q-9 0 -16 3q-8 4 -14 10t-9 13q-4 8 -4 17t4 16q3 7 9 13q5 5 13 10q7 3 17 3zM1565 446q-4 5 -7 7t-9 2
q-7 0 -9 -2q-3 -1 -7 -7h32zM325 335q4 0 6 -2q3 -2 3 -6q0 -2 -2 -6l-6 -3q-4 0 -5 -1q-1 -2 -1 -5v-13q5 0 8 -3q2 -1 2 -6q0 -4 -2 -6t-8 -2v-27q0 -3 -2 -7q-1 -3 -3 -7q-3 -3 -6 -5q-4 -2 -7 -3q-1 -1 -5 -1q-3 0 -4 1q-2 1 -4 3q-1 1 -1 5q0 2 2 6q4 2 6 2q1 0 5 2
q1 1 1 4v27q-6 0 -8 2q-2 4 -2 6q0 5 2 6q1 3 8 3v13q0 3 2 9q1 3 5 7q2 2 7 6q3 1 9 1zM370 315q4 0 12 -2q6 -3 10 -7q3 -3 7 -11q3 -5 3 -12t-3 -13q-2 -5 -7 -10q-2 -3 -10 -7q-8 -2 -12 -2q-5 0 -13 2q-6 3 -10 7t-7 10q-2 4 -2 13q0 8 2 12q3 6 7 10t10 7t13 3z
M370 298q-2 0 -3 -0.5t-3 -0.5q-2 -1 -5 -4q-2 -2 -3 -4t-1 -6t1 -6t1.5 -2.5t1.5 -2.5q2 -1 2.5 -1.5t2.5 -1.5t6 -1t5 1q4 2 5 3q1 2 2 2.5t1 2.5q2 4 2 6q-2 7 -5 10q-5 5 -10 5zM417 251q-4 0 -6 2t-2 3t-1 3v25q0 6 3 12q2 2 3.5 4.5t3.5 4.5q4 4 10 7t12 3q4 0 6 -3
q3 -2 3 -6q0 -2 -2 -6q-4 -2 -7 -2q-1 0 -5 -2q-4 0 -5 -3q-1 -1 -1.5 -2t-1.5 -2q-1 -2 -1 -6v-24q0 -5 -3 -6q-1 -2 -6 -2zM515 315q14 0 23 -9q2 -4 2 -6q0 -5 -3 -6q-1 -2 -6 -2q-4 0 -6 2q-6 4 -10 4q-2 0 -6 -2q-1 0 -4 -3q-2 -1 -4 -5q0 -1 -0.5 -2t-0.5 -3t0.5 -3
t0.5 -3q1 -2 4 -5q1 -1 2 -1.5t2 -1.5q2 -1 6 -1q6 0 10 4q4 2 6 2q4 0 6 -2t2 -3t0.5 -1.5t0.5 -1.5q0 -2 -1 -3q0 -1 -0.5 -1.5t-0.5 -1.5q-2 -2 -5 -3.5t-5 -3.5q-8 -2 -13 -2q-4 0 -12 2q-8 4 -10 7q-6 6 -7 11q-3 4 -3 12q0 6 3 12q1 4 7 10q4 4 10 7t12 3zM579 315
q4 0 12 -2q6 -3 10 -7q3 -3 7 -11q3 -5 3 -12t-3 -13q-2 -2 -3.5 -5t-3.5 -5q-4 -4 -10 -7q-8 -2 -12 -2q-5 0 -13 2q-6 3 -10 7t-7 10t-3 13q0 6 3 12t7 10t10 7t13 3zM579 298q-2 0 -3 -0.5t-3 -0.5q-2 -1 -5 -4q-2 -2 -3 -4t-1 -6t1 -6t1.5 -2.5t1.5 -2.5q2 -1 2.5 -1.5
t2.5 -1.5t6 -1q3 0 5 1q4 2 5 3q1 2 1.5 2.5t1.5 2.5t1 6q0 6 -4 10q-5 5 -10 5zM642 315q2 0 4 -0.5t4 -0.5q4 -2 6 -4q8 5 15 5q3 0 9 -2q4 -2 8 -5q4 -4 5 -7q2 -6 2 -9v-33q0 -3 -3 -6q-4 -2 -6 -2t-6 2q-2 2 -2 6v33q0 2 -2 4t-5 2q-2 0 -4 -2t-2 -4v-33q0 -2 -2 -6
q-4 -2 -7 -2t-5 2q-3 3 -3 6v33q0 2 -2 4t-4 2q-1 0 -5 -2q-1 -1 -1 -5v-32l-1.5 -3l-1.5 -3q-4 -2 -6 -2h-4l-2 2q-2 2 -2 3q-1 1 -1 3v33q0 3 2 9q1 3 5 7q3 3 8 5q4 2 9 2zM727 315q2 0 4 -0.5t4 -0.5q4 -2 7 -4q7 5 15 5q3 0 9 -2q3 -1 7 -5t5 -7q2 -3 2 -9v-33
q0 -4 -2 -6q-4 -2 -6 -2q-4 0 -6 2q-3 3 -3 6v33q0 2 -2 4t-4 2t-4 -2q-2 -1 -2 -4v-33q0 -3 -3 -6q-4 -2 -6 -2t-6 2q-3 3 -3 6v33q0 3 -2 4q-2 2 -4 2t-4 -2t-2 -5v-32q0 -3 -3 -6q-2 -2 -6 -2h-3q-1 1 -1.5 1t-1.5 1t-1 1.5t-1 1.5v3v33q0 6 2 9q2 5 5 7q4 4 7 5q6 2 9 2
zM820 315q6 0 12 -3q8 -4 10 -7q6 -6 8 -10q2 -8 2 -12q0 -2 -2 -6q-4 -2 -7 -1h-35q5 -8 12 -8h4q1 1 2 1l2 1q1 1 3 1q1 0 5 -2q2 -2 3 -4q1 -1 1 -4q-2 -5 -3 -5q-2 -2 -8 -4q-3 -1 -9 -1q-8 0 -12 2q-6 3 -10 7q-6 6 -7 11q-3 4 -3 12q0 6 3 12q1 3 2.5 5.5t3.5 4.5
q3 3 11 7q6 3 12 3zM832 290q-1 4 -5 6t-7 2t-7 -2t-5 -6h24zM867 251q-5 0 -6 2q-3 3 -3 6v25q0 6 3 12q2 2 3.5 4.5t3.5 4.5q4 4 10 7t12 3q4 0 6 -3q3 -2 3 -6q0 -3 -3 -6q-2 -2 -6 -2q-3 0 -5 -2q-4 0 -5 -3q-1 -1 -1.5 -2t-1.5 -2q-1 -2 -1 -6v-24q-2 -5 -3 -6
q-2 -2 -6 -2zM932 315q14 0 23 -9q2 -4 2 -6q0 -5 -3 -6q-1 -2 -6 -2q-4 0 -6 2q-6 4 -10 4q-3 0 -5 -2q-2 0 -5 -3q-3 -2 -3 -5q-2 -2 -2 -5q0 -2 2 -6q0 -2 1 -2.5t2 -2.5q1 -1 5 -3q1 -1 5 -1q7 0 10 4q4 2 6 2q4 0 6 -2t2 -3q1 -1 1 -3v-3q-1 -1 -1 -1.5t-1 -1.5
q-2 -2 -5 -3.5t-5 -3.5q-8 -2 -13 -2q-4 0 -12 2q-6 3 -10 7q-3 3 -7 11q-3 4 -3 12q0 6 3 12t7 10t10 7t12 3zM974 335q3 0 6 -3q2 -4 2 -6t-2 -6q-2 -2 -6 -2q-5 0 -7 2q-2 4 -2 7t3 5q1 3 6 3zM974 315q3 0 5 -3q3 -3 3 -6v-47q0 -2 -2 -6q-2 -2 -3 -2t-3 -1q-4 0 -6 2
q-3 3 -3 6v48q0 4 3 6q1 1 6 3zM1026 315q6 -2 11 -4q6 -4 9 -7q4 -6 6 -10q2 -6 2 -11v-24q0 -3 -3 -6q-2 -2 -6 -2t-7 4q-1 0 -1 -1h-1q-4 -2 -7 -2q-2 -1 -7 -1q-10 0 -18 5q-8 7 -12 14q0 2 -2 6v7v6q2 6 2 7q5 8 12 14q8 5 18 5h2h2zM1022 268q4 0 5 1q4 2 5 3q3 3 3 5
q2 4 2 6q0 3 -2 5q0 3 -3 5q-2 3 -5 3q-2 2 -5 2q-2 0 -6 -2q-2 0 -5 -3q-1 -1 -3 -5q-1 -1 -1 -5t1 -6t4 -5q1 -1 2 -1.5t2 -1.5q2 -1 6 -1zM1071 335q2 0 6 -2q2 -4 2 -7v-52q0 -1 2 -5q1 -1 4 -1q4 0 7 -3q2 -2 2 -6q0 -3 -2 -5q-2 -3 -6 -3h-1q-6 0 -9 2q-3 1 -7 5t-5 7
q-2 3 -2 9v53q0 3 3 6q2 2 6 2zM1138 315q3 0 6 -3q3 -2 3 -6v-23q0 -4 1 -6t1.5 -2.5t1.5 -2.5q1 -1 5 -3q1 -1 5 -1t6 1t2.5 1.5t2.5 1.5q1 1 1.5 2t1.5 2q1 2 1 6v24q0 3 3 6q1 3 6 3q3 0 6 -3q3 -2 3 -5v-24q0 -7 -3 -13t-7 -10t-10 -7q-8 -2 -13 -2q-8 0 -12 2
q-6 3 -10 7t-7 10t-3 12v24q0 4 3 6q1 3 6 3zM1245 315q3 0 6 -3q2 -2 2 -5q0 -5 -3 -6q-2 -3 -5 -3h-23q-2 0 -3 -1q-1 0 -1 -2q0 -3 1 -3q1 -1 3 -1h15q3 0 7 -2q3 -1 7 -5q1 -2 2 -3t2 -3t1 -7t-1 -8q-2 -2 -2.5 -3.5t-2.5 -3.5q-2 -1 -3 -2t-3 -2q-3 -1 -9 -1h-24
q-2 0 -6 2q-3 3 -3 6t3 6q1 3 6 3h24q4 0 4 3q0 4 -4 4h-15q-5 0 -7 1q-2 2 -3 2.5t-3 2.5t-4 6q-2 6 -2 8q0 3 2 7q1 4 4 7q2 2 6 4q6 2 8 2h24zM1295 315q6 0 12 -3q8 -4 10 -7q6 -6 8 -10q2 -8 2 -12q0 -2 -2 -6q-4 -2 -7 -1h-35q5 -8 12 -8h4q1 1 2 1l2 1q1 1 3 1
q1 0 5 -2q2 -2 3 -4q1 -1 1 -4q-2 -5 -3 -5q-2 -2 -8 -4q-3 -1 -9 -1q-8 0 -12 2q-6 3 -10 7q-6 6 -7 11q-3 4 -3 12q0 6 3 12q1 3 2.5 5.5t3.5 4.5q3 3 11 7q6 3 12 3zM1307 290q-1 4 -5 6t-7 2t-7 -2t-5 -6h24zM397 128h-4q-5 -2 -6 -3q-3 -3 -7 -3q-3 0 -6 3q-2 1 -3 6
q0 3 3 6q2 4 11 7q2 1 8 1h9q2 0 4 2q2 3 2 8q-4 -2 -6 -2q-3 -1 -9 -1q-9 0 -13 2q-8 4 -10 7q-4 4 -7 10q-2 4 -2 13q0 8 2 12q3 6 7 10q5 5 10 7q6 3 13 3q6 0 12 -3q4 -1 10 -7q3 -2 7 -10q3 -6 3 -12q0 -8 -4 -16q2 -3 3 -7t1 -10q0 -2 -2 -8q-2 -5 -5 -8q-4 -4 -7 -5
q-3 -2 -9 -2h-4h-1zM393 199q-2 0 -6 -2q-2 0 -2.5 -1t-2.5 -2q-1 -1 -3 -5q-1 -1 -1 -5t1 -6t1.5 -2.5t1.5 -2.5q1 -1 5 -3q2 -1 6 -1t6 1q1 1 2 1.5t2 1.5q3 3 3 5q2 4 2 6t-2 6q-1 1 -1.5 2t-1.5 2q-2 3 -5 3q-4 2 -5 2zM463 216q7 0 13 -3q2 -2 5 -3.5t5 -3.5
q4 -4 7 -10t3 -12q0 -3 -3 -6q-4 -2 -6 -2h-36q4 -7 12 -7h4q1 1 3 1q0 1 2 1q1 0 1 0.5t1 0.5q2 -1 3 -1t2 -1q3 -2 3 -4q1 -1 1 -4t-2 -5q-4 -3 -8 -4q-3 -1 -10 -1q-8 0 -12 2q-6 3 -10 7t-7 10t-3 13q0 6 3 12t7 10t10 7t12 3zM475 191q-1 4 -5 6t-7 2q-2 0 -6 -2
q-3 -2 -6 -6h24zM511 236q5 0 6 -2q3 -3 3 -7v-10h23q4 0 6 -3q3 -3 3 -6t-3 -6t-6 -3h-23v-15q0 -4 1 -5q2 -4 3 -5q3 -3 5 -3q4 -2 6 -2t3 0.5t3 0.5q1 1 2 1.5t2 1.5q2 2 6 2q4 1 7 -2q0 -1 2 -3v-3v-3q0 -1 -2 -3q-4 -4 -10 -7q-4 -2 -12 -2q-9 0 -13 2q-8 4 -11 7
q-4 4 -7 10t-3 13v44q0 3 3 6q2 2 6 2zM630 216q8 -2 11 -4q6 -3 9 -7q5 -5 6 -10q3 -5 3 -11v-24q0 -3 -3 -6q-4 -2 -6 -2q-6 0 -7 4q-1 0 -2 -1h-1l-6 -3h-7q-12 0 -18 5q-8 7 -12 14q-1 2 -1 3t-1 3q0 2 -0.5 3.5t-0.5 3.5t0.5 3t0.5 3q1 2 1 3.5t1 3.5q5 8 12 14
q8 5 18 5h1h2zM626 169q4 0 6 1q4 2 5 3t3 5q1 2 1 6t-1 5q-2 4 -3 5q-3 3 -5 3q-4 2 -6 2q-1 0 -5 -2q-4 0 -5 -3q-1 -1 -3 -5q-1 -1 -1 -5t1 -6t1.5 -2.5t1.5 -2.5q2 -1 2.5 -1.5t2.5 -1.5t5 -1zM705 236q4 0 6 -3q3 -2 3 -6v-52q0 -3 2 -5q1 -1 4 -1t6 -3q3 -2 3 -6
q0 -3 -2 -5q-3 -3 -6 -3h-2q-6 0 -9 1q-2 2 -3.5 3t-3.5 3q-4 4 -5 7q-2 6 -2 9v53q2 4 3 5q3 3 6 3zM743 236q3 0 6 -3q2 -2 2 -6t-2 -6q-3 -3 -6 -3q-2 1 -3.5 1t-2.5 2q-3 1 -3 6q0 4 3 6q3 3 6 3zM743 215q4 0 6 -2q2 -4 2 -6v-47q0 -4 -2 -6q-2 -3 -6 -3q-2 0 -6 2
l-3 6v48q1 4 3 6t6 2zM791 216q14 0 23 -9q2 -4 2 -6q0 -5 -3 -6q-1 -2 -6 -2q-3 -1 -6 2q-6 4 -10 4q-2 0 -6 -2q-1 0 -4 -3q-2 -1 -4 -5q0 -1 -0.5 -2t-0.5 -3t0.5 -3t0.5 -3q1 -2 4 -5q1 -1 5 -3q1 -1 5 -1q5 0 10 3q3 3 6 3q4 0 6 -3q2 0 2 -2q1 -1 1 -3t-1 -3
q0 -1 -0.5 -1.5t-0.5 -1.5q-2 -2 -5 -3.5t-5 -3.5q-4 -2 -13 -2q-4 0 -12 2q-6 3 -10 7q-6 5 -7 10q-3 6 -3 13q0 6 3 12q1 4 7 10q4 4 10 7t12 3zM855 216q6 0 12 -3t10 -7t7 -10t3 -12q0 -3 -3 -6q-2 -2 -6 -2h-35q3 -7 12 -7h3q1 1 3 1q1 1 2 1t1.5 0.5t1.5 0.5
q1 -1 2 -1t2 -1q3 -2 3 -4q1 -1 1 -4t-2 -5q-4 -3 -8 -4q-3 -1 -9 -1q-9 0 -13 2q-2 2 -5 3.5t-5 3.5q-4 4 -7 10q-2 3 -2 6.5v6.5q0 8 2 12q3 6 7 10t10 7t13 3zM867 191q-3 4 -6 6q-4 2 -6 2q-3 0 -7 -2t-5 -6h24zM925 216q5 0 13 -2q2 -2 5 -3.5t5 -3.5t3.5 -4.5
t3.5 -4.5q2 -4 2 -13v-24q0 -5 -2 -6q-3 -3 -6 -3q-2 0 -6 2q-3 3 -3 6v24q0 4 -1 6t-1.5 2.5t-1.5 2.5q-1 1 -5 3q-2 1 -6 1t-5 -1q-4 -2 -5 -3t-3 -5q-1 -1 -1 -5v-24q0 -5 -3 -6q-3 -3 -6 -3q-2 0 -6 2q-3 3 -3 6v24q0 7 3 13q1 4 7 10q2 3 10 7q8 2 12 2zM1009 216
q3 0 6 -3q2 -2 2 -5q0 -5 -3 -6q-2 -3 -5 -3h-23q-2 0 -3 -1t-1 -3t1 -2q1 -1 3 -1h15q3 0 7 -2q3 -1 7 -5q1 -2 2 -3t2 -3t1 -7q0 -6 -2 -8q-2 -5 -4 -7q-2 -1 -3 -2t-3 -2q-3 -1 -9 -1h-24q-4 0 -6 2q-3 3 -3 6t3 6q1 3 6 3h24q4 0 4 3q0 4 -4 4h-15q-5 0 -7 1q-5 2 -6 5
q-2 2 -4 6q-2 6 -2 8q0 3 2 7q1 4 4 7q2 2 6 4q6 2 8 2h24zM1059 216q6 0 12 -3t10 -7q6 -6 8 -10q2 -8 2 -12q0 -2 -2 -6q-4 -2 -7 -2h-35q4 -7 12 -7h4q1 1 2 1l2 1q1 0 1.5 0.5t1.5 0.5q2 -1 2.5 -1t2.5 -1q2 -2 3 -4q1 -1 1 -4q-2 -5 -3 -5q-2 -2 -8 -4q-3 -1 -9 -1
q-8 0 -12 2q-8 4 -10 7q-6 6 -8 10q-2 8 -2 13q0 4 2 12q2 3 3.5 5.5t3.5 4.5q3 3 11 7q6 3 12 3zM1071 191q-1 4 -5 6t-7 2t-7 -2t-5 -6h24zM1163 216q6 -2 11 -4q6 -4 9 -7q4 -6 6 -10q2 -6 2 -11v-24q0 -3 -3 -6q-2 -2 -6 -2t-7 4q-1 0 -1 -1h-1q-2 -1 -3.5 -1.5
t-3.5 -1.5h-7q-12 0 -18 5q-8 7 -12 14q0 2 -2 6v7v6q2 6 2 7q5 8 12 14q8 5 18 5h2h2zM1159 169q4 0 6 1q1 1 2 1.5t2 1.5q3 1 3 5q2 4 2 6q0 3 -2 5q0 3 -3 5q-2 3 -5 3q-2 2 -5 2q-2 0 -6 -2q-2 0 -5 -3q-1 -1 -3 -5q-1 -1 -1 -5t1 -6t4 -5q1 -1 2 -1.5t2 -1.5q2 -1 6 -1
zM1208 236q4 0 6 -2q3 -3 3 -7v-10h23q3 0 6 -3q2 -4 2 -6t-2 -6q-3 -3 -6 -3h-23v-15q0 -4 1 -5q2 -4 3 -5q1 -3 5 -3q4 -2 6 -2t3 0.5t3 0.5q1 1 2 1.5t2 1.5q2 2 6 2q3 1 6 -2q2 -2 2 -3q1 -1 1 -3v-3q-1 -1 -1 -1.5t-1 -1.5q-2 -2 -5 -3.5t-5 -3.5q-4 -2 -12 -2
q-9 0 -13 2q-8 4 -11 7q-6 6 -7 10q-3 6 -3 13v44q0 3 3 6q1 2 6 2zM380 614q0 2 1 3t3 1t2 -1q1 -1 1 -3v-15h27q3 0 4 -1q0 -1 0.5 -1.5t0.5 -1.5l-1 -2q-1 -1 -4 -1h-27v-23q0 -4 2 -8q1 -3 5 -7t7 -5q4 -2 8 -2q3 0 9 2q2 1 3.5 1.5t3.5 2.5q0 2 2 2t3 -1t1 -3v-2
q-4 -4 -10 -7q-4 -2 -12 -2t-11 2q-3 1 -5.5 2.5t-4.5 3.5q-4 6 -6 10q-2 6 -2 11v45zM444 614q0 2 1 3t2 1q2 0 3 -1t1 -3v-25q5 5 9 7q4 3 12 3q5 0 11 -2q6 -3 9 -6q5 -5 6 -10q2 -6 2 -11v-27q0 -2 -1 -2q-1 -1 -3 -1t-2 1q-1 0 -1 2v27q0 3 -2 9q-2 4 -4 6q-4 4 -7 5
q-2 1 -8 1t-8 -1q-3 -1 -7 -5q-3 -3 -4 -7q-2 -4 -2 -8v-27q0 -2 -1 -2q-1 -1 -3 -1q-1 0 -2 1q-1 0 -1 2v71zM512 613q0 1 2 3t3 2q2 0 4 -2q1 -1 1 -3q0 -3 -1 -4t-4 -1q-2 0 -3 1q-2 2 -2 4zM514 595q0 2 1 3q0 1 2 1t3 -1t1 -3v-52q0 -2 -1 -2q-1 -1 -3 -1t-2 1
q-1 0 -1 2v52zM536 543q0 2 1 3t3 1h26q4 0 6 3q3 1 3 6q0 3 -3 6q-2 3 -6 3h-14q-5 0 -7 1q-4 2 -5 4q-2 1 -4 5q-1 2 -1 7q0 4 1 6q2 4 4 6q3 3 5 4q2 0 3.5 0.5t3.5 0.5h25l2 -1q1 -1 1 -3t-1 -3t-2 -1h-25q-4 0 -7 -3t-3 -6q0 -4 3 -7t7 -3h14q5 0 7 -1t5 -4q1 -1 3 -5
t2 -6t-2 -6l-3 -6q-2 -1 -2.5 -1.5t-2.5 -1.5t-7 -1h-26q-2 0 -3 1q-1 0 -1 2zM620 614q0 2 1 3t3 1t2 -1q1 -1 1 -3v-15h27q3 0 4 -1q0 -1 0.5 -1.5t0.5 -1.5l-1 -2q-1 -1 -4 -1h-27v-23q0 -4 2 -8q1 -3 5 -7t7 -5q4 -2 8 -2q3 0 9 2q2 1 3.5 1.5t3.5 2.5q0 2 2 2t3 -1
t1 -3v-2q-4 -4 -10 -7q-4 -2 -12 -2t-11 2q-3 1 -5.5 2.5t-4.5 3.5q-4 6 -6 10q-2 6 -2 11v45zM684 595q0 2 1 3t2 1t1.5 -0.5t1.5 -0.5q1 -1 1 -3v-27q0 -4 2 -8q1 -5 4 -7q2 -3 7 -4q4 -2 8 -2t8 2q4 1 7 4q2 2 4 7q2 4 2 8v27q0 2 1 3t2 1t1.5 -0.5t1.5 -0.5q1 -1 1 -3
v-27q0 -4 -2 -10q-1 -5 -5 -9q-3 -4 -8 -6q-5 -3 -9 -3v-15q0 -1 -2 -3q0 -1 -2 -1t-3 1t-1 3v15q-6 0 -10 3q-2 1 -4 2.5t-4 3.5t-2.5 4.5t-2.5 4.5q-1 3 -1 10v27zM752 595q0 1 0.5 1.5t0.5 1.5q1 0 1.5 0.5t1.5 0.5t1.5 -0.5t1.5 -0.5q1 -1 1 -3v-6q4 4 10 7q4 3 12 3
q6 0 11 -3q5 -1 10 -6l6 -9q2 -4 2 -12t-2 -11q-3 -6 -7 -10q-3 -3 -9 -6q-3 -2 -11 -2q-5 0 -7 1q-2 0 -6 2t-6 4t-3 4v-27q0 -2 -1 -2q-1 -1 -3 -1t-3 1t-1 2v71zM760 569q0 -6 2 -8q1 -5 4 -7q2 -2 3.5 -3t3.5 -2q6 -2 9 -2q4 0 8 2q3 1 7 5t5 7q2 4 2 8q0 3 -2 9
q-2 4 -5 7q-3 2 -7 4q-2 2 -8 2t-9 -1q-2 -2 -3 -2.5t-3 -2.5q-4 -4 -5 -7q-2 -4 -2 -8v-1zM831 566q1 -2 1.5 -4t1.5 -4q2 -3 5 -5q2 -2 6 -4q6 -2 8 -2q4 0 8 2q3 1 7 5q1 0 1.5 0.5t1.5 0.5t1.5 -0.5t1.5 -0.5q1 -1 1 -3t-1 -3q-5 -5 -9 -6q-4 -2 -12 -2q-5 0 -11 2
q-3 1 -5.5 2.5t-4.5 3.5t-3.5 4.5t-2.5 4.5q-2 4 -2 12t2 12q1 4 6 9q4 4 9 6q6 3 12 3q5 0 11 -2q6 -3 10 -7q2 -2 3.5 -4.5t2.5 -4.5q3 -6 3 -12q0 -2 -2 -2q0 -1 -2 -1h-48zM875 573q-1 3 -3 7q-1 2 -2 3l-3 3t-6 4q-3 1 -8 1t-8 -1q-4 -2 -6 -4l-3 -3t-2 -3q-2 -4 -2 -7
h43zM904 602q0 4 1 6t1.5 2.5t1.5 2.5q2 1 2.5 2t2.5 1q4 2 7 2l2 -1q2 -2 2 -3t-2 -3q0 -1 -2 -1q-4 0 -6 -2q-3 -3 -3 -6v-22h9l2 -2q1 0 1 -2t-1 -3t-2 -1h-9v-29q0 -2 -1 -2q-1 -1 -3 -1t-2 1q-1 0 -1 2v29h-5q-2 0 -3 1t-1 3t1 2q2 2 3 2h5v22zM987 551q-2 -4 -9 -8
q-6 -3 -13 -3q-8 0 -11 2q-5 1 -10 6l-6 9q-2 8 -2 12t2 12l6 9q5 5 10 6q4 3 11 3q6 0 12 -3q4 -2 9 -6q5 -5 6 -10q3 -5 3 -11v-26l-1 -2q-2 -2 -3 -2t-3 2q-1 1 -1 2v8zM987 569q0 6 -1 9q-2 2 -2.5 3.5t-2.5 3.5t-3.5 2.5t-3.5 1.5q-3 2 -9 2t-8 -2q-5 -2 -7 -4
q-3 -3 -5 -7q-2 -6 -2 -9q0 -4 2 -8q1 -3 5 -7t7 -5q4 -2 8 -2q3 0 9 2q2 1 6 5q3 1 5 6q2 6 2 9zM1052 585q-1 1 -7 5q-3 1 -8 1q-6 0 -9 -2q-5 -2 -7 -4q-3 -3 -5 -7q-1 -3 -1 -9t1 -8q1 -3 5 -7t7 -5q2 -1 4 -1.5t5 -0.5q2 0 8 2q3 1 7 5q1 0 1.5 0.5t1.5 0.5l2 -1
q1 -1 1 -3t-1 -3l-3 -3q-2 -2 -5 -2q-1 -1 -5 -3h-7q-8 0 -12 2q-6 2 -9 6q-3 3 -7 9q-2 8 -2 12q0 5 2 11q3 6 7 10q5 5 9 6q6 3 12 3q2 0 3.5 -0.5t3.5 -0.5q2 -1 2.5 -1t2.5 -1t2.5 -1.5t2.5 -1.5l3 -3q1 -1 1 -2q0 -2 -1 -3q0 -1 -2 -1t-3 1zM1076 566q1 -2 1.5 -4
t1.5 -4q2 -3 5 -5q2 -2 6 -4q6 -2 8 -2q4 0 8 2q3 1 7 5q1 0 1.5 0.5t1.5 0.5t1.5 -0.5t1.5 -0.5q0 -1 0.5 -1.5t0.5 -1.5t-0.5 -1.5t-0.5 -1.5q-5 -5 -9 -6q-4 -2 -12 -2q-4 0 -12 2q-2 1 -4.5 2.5t-4.5 3.5q-5 4 -6 9q-3 6 -3 12t3 12q1 4 6 9q4 4 9 6q6 3 12 3q5 0 11 -2
q6 -3 10 -7l6 -9q2 -4 2 -12q0 -2 -1 -2q-1 -1 -2 -1h-48zM1120 573q-1 3 -3 7q-1 2 -2 3l-3 3t-6 4q-3 1 -8 1t-8 -1q-4 -2 -6 -4l-3 -3t-2 -3q-2 -4 -3 -7h44zM1165 613q0 2 1 3q2 2 4 2q1 0 3 -2t2 -3q0 -2 -2 -4q-1 -1 -3 -1q-3 0 -4 1t-1 4zM1166 595q0 2 1 3t3 1t2 -1
q2 -2 2 -3v-52q0 -2 -2 -2q0 -1 -2 -1t-3 1q-1 0 -1 2v52zM1188 543q0 1 0.5 1.5t0.5 1.5q1 1 3 1h27q3 0 6 3q2 2 2 6q0 2 -2 6q-3 3 -6 3h-15q-4 0 -7 1q-2 1 -5 4q-2 1 -4 5q-1 2 -1 7q0 4 1 6q2 4 4 6q2 1 2.5 2t2.5 2q2 0 3.5 0.5t3.5 0.5h25q1 0 1.5 -0.5t1.5 -0.5
q0 -1 0.5 -1.5t0.5 -1.5t-0.5 -1.5t-0.5 -1.5q-1 0 -1.5 -0.5t-1.5 -0.5h-25q-4 0 -7 -3q-2 -4 -2 -6q0 -3 2 -7q3 -3 7 -3h15q4 0 6 -1q4 -2 5 -4q2 -1 4 -5q0 -2 0.5 -3t0.5 -3t-0.5 -3t-0.5 -3q-2 -4 -4 -6q-1 -1 -5 -3q-2 -1 -6 -1h-27q-2 0 -3 1t-1 2zM328 76q0 2 3 2
q2 0 3 -1q1 0 1 -2v-2l-22 -49l-1 -2l-2 -1q-2 0 -3 1t-1 2l-13 29l-13 -29q0 -2 -1 -2q-1 -1 -2 -1q-2 0 -2 1l-2 2l-21 49v2q0 2 1 2q0 1 2 1h2l2 -2l18 -41l18 41q1 2 4 2q2 0 2 -1q1 0 1 -2v-2l-5 -10l13 -28zM425 76q1 2 4 2q2 0 3 -1v-2v-2l-21 -49l-2 -2q0 -1 -2 -1
q-1 0 -2 1q-1 0 -1 2l-13 29l-13 -29l-1 -2q-1 -1 -3 -1q-1 0 -2 1t-1 2l-21 49q-1 1 -1 2l1 2q1 1 3 1h2q1 -1 1 -2l18 -41l19 41q0 2 3 2q2 0 3 -1t1 -2t-1 -2l-4 -10l12 -28zM523 76q1 2 3 2t3 -1q1 0 1 -2v-2l-22 -49l-1 -2l-2 -1q-2 0 -2 1q-2 0 -2 2l-13 29l-12 -29
l-2 -2q0 -1 -2 -1q-1 0 -2 1q-1 0 -1 2l-22 49v2q0 2 1 2q0 1 2 1h2l2 -2l18 -41l18 41q1 2 4 2q2 0 2 -1q1 0 1 -2v-2l-5 -10l13 -28zM542 26q0 2 1 3t4 1q2 0 3 -1q2 -2 2 -3q0 -2 -2 -4q-1 -1 -3 -1q-3 0 -4 1t-1 4zM567 71q-2 0 -2 1q-1 1 -1 3t1 2q0 1 2 1h47q1 0 2 -1
q1 0 1 -2t-1 -3l-40 -44h38q2 0 2 -1q1 -1 1 -3t-1 -2q0 -1 -2 -1h-47q-2 0 -3 1t-1 2t0.5 1.5t0.5 1.5l41 44h-38zM636 46q2 -6 3 -7q2 -4 4 -6q4 -2 7 -3q4 -2 7 -2q4 0 8 2q4 1 7 4q1 1 3 1t2 -1q1 0 1 -2t-1 -3q-3 -5 -9 -6q-6 -2 -11 -2t-11 2q-5 1 -9 6q-5 4 -6 9
q-2 4 -2 11q0 8 2 12q1 4 6 9q3 3 9 6q6 2 11 2q8 0 11 -2q3 -1 5 -2.5t4 -3.5q3 -3 7 -9q1 -3 1.5 -5.5t0.5 -5.5q0 -2 -0.5 -2t-0.5 -1q-1 -1 -3 -1h-46zM678 53q0 3 -2 7q-2 2 -2.5 3t-2.5 3q-2 1 -3 2t-3 2q-2 0 -4 0.5t-4 0.5t-3.5 -0.5t-3.5 -0.5q-2 -1 -3.5 -2
t-3.5 -2q-1 -2 -2 -3t-2 -3q-2 -4 -3 -7h42zM698 93q0 2 1 3q1 0 1 0.5t1 0.5t1.5 -0.5t1.5 -0.5q1 -1 1 -3v-14h26q1 0 1 -0.5t1 -0.5h1q2 -2 2 -3t-2 -3l-1 -1h-2h-26v-22q0 -2 2 -8q1 -5 4 -7q2 -2 3.5 -2.5t3.5 -1.5q6 -2 8 -2q3 0 9 2q4 2 6 4q1 1 3 1h2q2 -2 2 -3
q0 -2 -1 -3l-9 -6q-4 -2 -12 -2q-7 0 -11 2q-5 1 -9 6l-6 9q-1 3 -1.5 5.5t-0.5 5.5v44zM810 32q-2 -4 -9 -8q-6 -3 -12 -3q-5 0 -11 2q-6 1 -9 6q-4 2 -7 9q-2 6 -2 11q0 4 2 12l6 9q6 4 10 6q6 2 11 2q3 0 5.5 -0.5t5.5 -1.5l9 -6q5 -5 6 -10q3 -5 3 -11v-25q0 -2 -2 -2
q0 -1 -2 -1t-3 1t-1 2v8zM810 49q0 6 -1 9q-2 2 -2.5 3.5t-2.5 3.5q-3 2 -7 4q-6 2 -8 2q-4 0 -8 -2q-5 -2 -7 -4q-3 -3 -5 -7q-1 -3 -1 -9q0 -5 1 -8q2 -4 5 -7q2 -3 7 -4q4 -2 8 -2q2 0 8 2q2 1 3.5 1.5t3.5 2.5t4 7q2 6 2 8zM840 81q0 2 2 6q0 3 3 5q3 3 5 3q4 2 6 2
q1 0 1.5 -0.5t1.5 -0.5q0 -1 0.5 -1.5t0.5 -1.5t-0.5 -1.5t-0.5 -1.5q-1 0 -1.5 -0.5t-1.5 -0.5q-2 0 -6 -2q-2 -4 -2 -6v-21h8q2 0 2 -2q1 0 1 -2t-1 -3t-2 -1h-8v-28l-1 -2q-1 -1 -3 -1t-3 1t-1 2v28h-5q-1 0 -1 0.5t-1 0.5q-1 1 -1 3t1 2l2 2h5v21zM903 78q3 0 5.5 -0.5
t5.5 -1.5l9 -6q2 -2 3.5 -4.5t2.5 -5.5q2 -3 2 -11q0 -7 -2 -11q-2 -5 -6 -9l-9 -6q-3 -1 -5.5 -1.5t-5.5 -0.5q-5 0 -11 2q-5 1 -10 6q-3 3 -6 9q-2 6 -2 11t2 11q3 6 6 9t9 7q8 2 12 2zM881 49q0 -2 2 -8q2 -4 5 -7q2 -2 6 -4q6 -2 9 -2q2 0 8 2q4 1 7 4q2 2 2.5 3.5
t1.5 3.5q2 6 2 8q0 3 -2 9q-1 2 -1.5 3.5t-2.5 3.5q-3 2 -7 4q-6 2 -8 2q-3 0 -9 -2q-4 -2 -6 -4q-3 -3 -5 -7q-2 -6 -2 -9zM946 50q0 8 2 11q1 5 5 9t9 6q3 2 11 2t11 -2q4 -2 9 -6q4 -4 5 -9q3 -5 3 -11v-26q0 -2 -2 -2q0 -1 -2 -1t-3 1t-1 2v26q0 6 -1 9q-1 2 -2 3t-2 3
q-3 2 -7 4q-2 2 -8 2t-8 -2q-5 -3 -6 -4q-4 -4 -5 -6q-1 -3 -1 -9v-26q0 -2 -1 -2q-1 -1 -3 -1t-2 1q-1 0 -1 2v26zM1015 93q0 2 1 3q1 0 1 0.5t1 0.5t1.5 -0.5t1.5 -0.5q1 -1 1 -3v-14h26q1 0 1 -0.5t1 -0.5h1q2 -2 2 -3t-2 -3l-1 -1h-2h-26v-22q0 -2 2 -8q1 -5 4 -7
q2 -2 3.5 -2.5t3.5 -1.5q6 -2 8 -2q3 0 9 2q4 2 6 4q1 1 3 1h2q2 -2 2 -3q0 -2 -1 -3l-9 -6q-4 -2 -12 -2q-7 0 -11 2q-5 1 -9 6l-6 9q-1 3 -1.5 5.5t-0.5 5.5v44zM1080 24q0 1 0.5 1.5t0.5 1.5q1 1 3 1h26q3 0 6 3q2 1 2 5q0 5 -2 6q-3 3 -6 3h-14q-5 0 -7 1t-5 4t-4 5
q0 2 -0.5 3.5t-0.5 3.5t0.5 3t0.5 3q1 2 4 5t5 4t7 1h24q2 0 3 -1t1 -2t-0.5 -1.5t-0.5 -1.5q-1 -1 -3 -1h-24q-4 0 -7 -3q-2 -2 -2 -6q0 -5 2 -7q3 -3 7 -3h14q4 0 6 -1q4 -2 5 -3q3 -3 4 -5q0 -2 0.5 -3.5t0.5 -3.5t-0.5 -3t-0.5 -3q-1 -2 -4 -5q-1 -1 -5 -3q-2 -1 -6 -1
h-26q-2 0 -3 1t-1 2zM1138 26q0 2 1 3t3 1q3 0 4 -1t1 -3q0 -3 -1 -4t-4 -1q-2 0 -3 1t-1 4zM1203 65q-3 2 -7 4q-6 2 -8 2q-4 0 -8 -2q-5 -2 -7 -4q-3 -3 -5 -7q-1 -3 -1 -9q0 -5 1 -8q2 -4 5 -7q2 -3 7 -4q4 -2 8 -2q2 0 8 2q4 1 7 4q0 1 2 1t3 -1q1 0 1 -2t-0.5 -2
t-0.5 -1l-3 -3q-4 -2 -5 -2q-2 -2 -5 -2q-2 -1 -7 -1t-11 2q-6 1 -9 6q-4 2 -7 9q-2 6 -2 11t2 11q3 6 6 9q4 4 10 7q6 2 11 2t7 -1q1 0 5 -2l4 -2q3 -2 3 -3l2 -2q0 -2 -1 -3t-3 -1t-2 1zM1250 78q3 0 5.5 -0.5t5.5 -1.5l9 -6q5 -5 6 -10q3 -5 3 -11q0 -5 -3 -11
q-2 -5 -6 -9q-3 -3 -9 -6q-6 -2 -11 -2t-11 2q-6 1 -9 6q-4 2 -7 9q-2 6 -2 11t2 11q3 6 6 9q4 4 10 7q6 2 11 2zM1229 49q0 -5 1 -8q2 -4 5 -7q2 -3 7 -4q4 -2 8 -2q2 0 8 2q4 1 7 4q2 2 2.5 3.5t2.5 3.5q1 3 1 8q0 6 -1 9q-2 2 -2.5 3.5t-2.5 3.5q-3 2 -7 4q-6 2 -8 2
q-4 0 -8 -2q-5 -2 -7 -4q-3 -3 -5 -7q-1 -3 -1 -9zM1324 59q0 4 -3 9q-5 3 -9 3q-3 0 -5 -1l-3 -3l-3 -3q-1 -2 -1 -5v-35q0 -2 -1 -2q-1 -1 -3 -1q-1 0 -2 1q-1 0 -1 2v35q0 5 1 7t2 3.5t2 3.5q2 1 3.5 2t3.5 2t7 1q7 0 9 -2q4 -1 7 -6q3 5 7 6q2 2 9 2q5 0 7 -1q3 -1 6 -4
q4 -4 5 -7q1 -2 1 -7v-35q0 -2 -1 -2q-1 -1 -3 -1q-1 0 -2 1q-1 0 -1 2v35q0 1 -0.5 2t-0.5 3l-3 3q-2 2 -4 3q-1 1 -4 1q-4 0 -5 -1q-2 -1 -4 -3t-2 -3q-1 -2 -1 -5v-35l-1 -2q-1 -1 -3 -1t-3 1t-1 2v35z" />
    <glyph glyph-name="two" unicode="2" horiz-adv-x="618" 
d="M247 601v-1v-1h1l1 -1h1v1l-1 1q-1 0 -1 1h-1zM106 32h1v-2v-1l-11 -1l-8 -9l23 2q1 0 1 -1l2 -1v-1h-1l-28 -3h-1v1l-1 1q0 1 1 1l7 10l-12 -2h-1v2q-1 0 -1 1h1l17 21h1v1l1 -1v-2l-15 -18zM130 -2l2 -2v-1v-1l-11 -2l-5 -11l22 6q0 1 1 0l1 -1v-1l-27 -8h-1l-1 1h-1
l1 1l5 11l-11 -3h-2v2l13 25h2v-2v-1l-11 -20zM160 -32h1l2 -2v-1l-10 -5l-4 -11l21 11h1l1 -2v-1l-24 -13h-1h-1l-1 1v1l4 12l-11 -6h-1l-1 1v1l8 27h1l1 -1l1 -1v-1l-8 -21zM165 -69h-1l-1 2h-1l1 2h1h2v-2zM175 -76l-1 1h1l1 2l25 11l-14 7q-1 1 -1 2l1 1l1 1l18 -10
q1 0 1 -1l-1 -2q-1 0 -1 -1l-24 -10l14 -7q1 0 1 -1v-1l-1 -1h-1h-1zM232 -71q1 0 1 -2l-1 -1q0 -1 -1 -1l-14 6l-3 -7l11 -4l1 -1v-1l-1 -2h-1l-11 4l-4 -8l15 -6v-1v-2h-2l-17 6v1l10 25zM258 -78h1v-1v-2l-1 -1h-1l-7 2l-6 -22v-1h-1h-2v1v1l5 22l-7 2h-1v1l1 2h1z
M262 -106l-1 -1l-2 1h-1l1 1l13 24q1 0 1 1h1l1 -1h1v-1l7 -27l-1 -1l-2 1h-1l-1 6l-13 2l-2 -3zM267 -98l10 -2l-4 14zM295 -84v1h18v-1v-1v-1h-15v-9h6h6v-1v-2v-1h-12v-11h-1h-2h-1zM334 -80h4q3 0 3 -1l4 -2q2 -2 3 -2q0 -2 0.5 -2.5t0.5 -1.5q1 -1 1 -3q1 -3 0 -4
q0 -3 -1 -4q0 -2 -1 -3q-2 -2 -3 -2q-2 -2 -3 -2q-1 -1 -4 -1q-1 -1 -4 0q-2 0 -3 1h-2q-1 0 -1 1l-3 3l-2 3q0 3 -1 4v4q1 1 1 3q0 1 2 3q0 1 2 3l4 2q1 1 3 1zM325 -96q1 -1 1 -2l2 -3l2 -2q1 0 2 -1l2 -1h4q1 0 1 0.5t1 0.5q1 1 3 1q0 2 2 2q0 2 1 3q0 1 0.5 1t0.5 1v3
l-2 4q0 1 -1 1.5t-1 1.5l-4 2h-5q-1 0 -2 -1q-2 0 -2 -1l-2 -2l-2 -2q0 -2 -1 -3v-3zM384 -97l-22 16l6 -20q0 -1 -1 -1l-2 -1q-1 0 -1 1l-7 24v1l1 1h2h1l21 -15l-6 20h1l1 1h1v-1l8 -25q1 0 0.5 -0.5t-1.5 -0.5h-2zM405 -59h1v-1l1 -1v-1h-1l-7 -3l9 -22v-1h-2l-10 21
l-8 -3l-1 2v1h1zM429 -52h-1h-2h-2q-1 0 -2 -1q-1 0 -1 -0.5t-1 -0.5l-1 -2v-2v-1q1 -1 2 -1h2h3q1 0 3 1q1 0 1.5 0.5t1.5 0.5h3q1 0 3 -1l2 -2v-4v-3q0 -1 -2 -3q0 -2 -1 -2t-2 -1l-3 -2h-2h-3q-2 0 -3 1h-1v1l1 1v2h1v-1q2 0 2 -1q2 0 2 0.5t1 0.5t2 1h1l2 2q1 0 1 2
q1 0 1 2q0 1 -1 2q0 1 -1 1h-2h-3q-1 0 -1 -0.5t-2 -0.5q-1 0 -2 -0.5t-2 -0.5h-3l-2 1l-2 2q-1 1 -1 3v3q2 2 2 3l4 3h2q1 0 1 0.5t1 0.5h3q1 0 2 -1h1l-1 -2v-1h-1zM456 -58v-2l-2 -1h-1l-2 1v2l2 1h1v-1h2zM466 -19l1 -2v-1h-1q-2 0 -3 -1q-1 0 -1.5 -0.5t-1.5 -0.5
l-3 -4v-4v-4q0 -2 2 -4t3 -2q2 -1 4 -1h4l4 3q1 0 1 1t1 1q0 1 1 2v2h1h2h1v-1q0 -1 -2 -5q-1 -1 -1 -1.5t-2 -1.5q-2 -2 -3 -2l-3 -2h-4q-2 0 -4 1l-1 1q-1 0 -1 1q-3 0 -3 2l-3 3q0 1 -0.5 1.5t-0.5 2.5v3v4l2 3q2 2 2 3l4 2q1 1 5 1zM477 -1l3 3q1 0 1.5 0.5t1.5 0.5
q2 1 4 1h3q2 0 2.5 -0.5t1.5 -0.5l3 -2l3 -3q1 -2 1 -4q1 -1 1 -3v-4q-1 0 -1 -1v-2q0 -3 -2 -3l-3 -3l-3 -2h-4h-3q-3 0 -3 1q-2 0 -4 2t-3 2q-1 2 -1 4q-1 1 -1 4v3q0 1 0.5 1.5t0.5 2.5q1 0 1 1t1 2zM481 -19q2 0 3 -1q1 0 1 -0.5t1 -0.5h3q1 0 3 1q1 1 2 1q2 0 2 2t2 2
v3v3v2q0 1 -2 3q0 1 -1 2l-4 2h-4q-2 0 -4 -1q-1 -1 -1.5 -1t-1.5 -2l-2 -2v-2q-2 -2 0 -3v-2q0 -2 0.5 -2t0.5 -1q2 -2 2 -3zM521 14h-1l-21 3l17 -12v-1l-1 -2h-1l-21 15v1v1l1 2q1 1 2 0l20 -3l-13 17v1v1l2 2l24 -10l1 -1l-1 -2q0 -1 -0.5 -1t-0.5 1l-19 8l13 -17v-1z
M267 542h1v-1q0 -1 -1 -1h-11v-30v-1h-1q-1 0 -1 1v30h-10q-1 0 -1 1v1h1h23zM286 542h4l3 -3q2 -2 2 -3q1 -2 1 -4v-3l-1 -2q-2 -4 -2 -3q-1 -1 -3 -1l6 -13v-1h-1h-1q-1 0 -1 1l-6 12v-1h-1h-11v-11l-1 -1h-1q-1 0 -1 1v32h1h13zM285 524h2q1 0 2 1h2l1 2l1 2q1 1 1 3
t-1 3q0 -1 -2 3l-2 1q-1 1 -3 1h-11v-16h10zM302 542h1h1h1v-32l-1 -1h-1q-1 0 -1 1v32zM310 510v1q0 1 1 1l12 30h1h1l14 -32q0 -1 -1 -1h-1q-1 0 -1 1l-3 7h-17l-2 -3q0 -2 -0.5 -2.5t-0.5 -1.5t-1 -1h-1q-1 0 -1 1zM317 520h15l-8 18zM364 512q1 0 1 -1v-1q0 -1 -1 -1
h-19q-2 0 -2 1v32h1h1h1h1v-30h17zM219 468q0 1 0.5 2t0.5 3q2 2 2 4q2 4 2 5q2 2 2 6q2 2 2 4q2 2 2 5h1h1h1v-1l-13 -32h-1h-1h-1l-12 32h-1v1h1h1h1q1 -2 1 -5l3 -4q0 -2 2 -6l2 -5q0 -2 2 -4q0 -3 2 -5zM260 497q1 0 1 -1v-1v-1h-1h-19v-12h15h1v-2h-1h-15v-13h19
q1 0 1 -1v-1q0 -1 -1 -1h-21h-1v1v31v1h1h21zM280 497h1q1 0 1 -0.5t1 -0.5q2 0 4 -2q0 -1 1 -1.5t1 -1.5v-4v-3q0 -2 -1 -3l-2 -2l-2 -2l5 -12v-1h-2l-6 13q-1 0 -1 -1h-11v-11l-1 -1h-1q-1 0 -1 1v32h1h13zM278 479h2h2q1 1 2 1l2 2v1q0 1 1 1v3v3l-2 2l-3 2h-2h-11v-15h9
zM294 470l1 1h1l2 -2q2 -2 3 -2t3 -1h2q2 0 4 1h1q1 0 2 1l2 2q1 1 1 3t-1 2q0 2 -1 2l-1 1q-1 0 -1.5 0.5t-1.5 0.5t-2 1h-2q-3 0 -5 2q-3 0 -3 1l-3 3v3q0 2 1 3q0 1 2 3t3 2h5h6q1 -1 2 -1.5t2 -2.5h1q0 -1 -1 -1v-1h-1v1l-2 1q-1 0 -2 1q-1 0 -2 1h-3q-2 0 -4 -1l-2 -1
q-2 0 -2 -2v-2v-2q0 -1 1 -2q1 0 1 -1h2l2 -1q1 -1 3 -1h2q2 0 3 -1t2 -1l2 -2l2 -2v-3q0 -2 -1 -4l-2 -3l-4 -2h-5h-3q-3 0 -3 1q-1 0 -3 2q-2 0 -2 2h-1v1zM324 496q0 1 1 1h1h1v-1v-31q0 -1 -1 -1h-1q-1 0 -1 1v31zM333 480q0 4 1 5q0 3 1 4l3 4q1 0 3 2q2 1 2 1.5t2 0.5
h5h4q2 0 4 -2q0 -1 2 -1q1 0 1 -1q3 -3 3 -4q2 -2 2 -4q0 -1 0.5 -2t0.5 -3q0 -1 -0.5 -1.5t-0.5 -2.5t-2 -4q0 -2 -3 -3q0 -2 -1 -2t-2 -1q-2 -2 -4 -2h-4h-5q-2 0 -2 0.5t-2 1.5q-1 1 -1.5 1t-1.5 2l-3 3q-1 1 -1 4q-1 2 -1 4zM336 480v-5l3 -4l5 -4q2 0 3 -0.5t3 -0.5
t4 1h1q1 0 2 1l3 3q1 0 1 1t1 1l2 4v3q0 4 -1 6l-3 5q-4 2 -5 2q-2 2 -5 2t-4 -1q-1 0 -1 -0.5t-1 -0.5h-1l-4 -2q0 -1 -2 -3q0 -1 -0.5 -1.5t-0.5 -2.5v-4zM397 496q0 1 2 1h1v-32q0 -1 -1 -1h-1h-1l-22 29v-28v-1h-2v1v31v1h2l6 -7l5 -8l6 -7q4 -4 5 -6v27zM96 127v1h1
l12 30q0 1 1 1h1v-1h1l13 -31l-1 -1h-1q-1 0 -1 1l-4 7h-16l-2 -4q0 -1 -0.5 -1.5t-0.5 -1.5l-1 -1h-1q-1 0 -1 1zM103 137h15l-8 18zM136 130q0 2 2 4q0 2 0.5 3t0.5 2l3 5q0 1 2 5q1 2 1 3t1 2q0 2 2 4v1h1l1 -1l-13 -31v-1h-1q-1 0 -1 1l-13 31v1h1q1 0 1 -1l2 -4
q1 -1 1 -5q1 -1 3 -5t2 -5q1 -1 1 -2t1 -3q2 -2 2 -4zM148 127v1l13 30v1h1q1 0 1 -1l13 -31v-1h-2v1l-4 7h-16q-2 -2 -2 -4q-1 -1 -1 -3l-1 -1h-1h-1v1zM154 137h15l-7 18zM202 129v-1v-1v-1h-20q-1 0 -1 1v31l1 1h1q1 0 1 -1v-29h18zM205 127v1l13 30q0 1 1 1h1v-1l13 -31
v-1h-1h-1v1l-3 7h-17l-2 -4q-1 -1 -1 -3l-1 -1h-2v1zM212 137h14l-7 18zM239 158q0 1 1 1h1v-1v-31v-1h-1q-1 0 -1 1v31zM262 159q2 0 2.5 -0.5t1.5 -0.5q2 0 3 -2l2 -2v-3q0 -4 -1 -4l-2 -4q1 0 2 -1q0 -1 0.5 -1t0.5 -1q1 0 1 -2l1 -2q0 -3 -1 -4q0 -1 -2 -3l-2 -2
q-1 -1 -4 -1h-15v1v31v1h13zM269 151q0 1 -1 2l-1 1l-1 1q-1 0 -1 1h-3h-11v-11h11h3l2 1q0 1 0.5 1t0.5 1q1 1 1 3zM270 136v2l-2 2l-1 1q-2 0 -2 0.5t-1 0.5h-13v-13h13h3l2 2q0 1 1 2v3zM298 129q1 0 1 -1v-1v-1h-1h-19q-1 0 -1 1v31q0 1 2 1l1 -1v-29h17zM326 159l1 -1
v-1v-1h-1h-19v-11h15h1v-1v-1v-1h-1h-15v-13h19l1 -1v-1q0 -1 -1 -1h-21h-1v1v31q0 1 1 1h21zM346 158q0 1 1 1h1q1 0 1 -1v-31q0 -1 -1 -1h-1q-1 0 -1 1v31zM381 158q0 1 1 1l2 -1v-31q0 -1 -2 -1h-1l-23 29v-28v-1h-1q-1 0 -1 1v31l1 1h1v-1l6 -6q4 -5 6 -7q1 -3 5 -7
l6 -7v27zM426 159l1 -1v-1v-1h-1h-19v-13h8h7h1v-1v-1v-1h-1h-15v-13q0 -1 -1 -1h-1q-1 0 -1 1v31l1 1h21zM433 139q0 -1 0.5 -2t0.5 -2l3 -4q2 -2 3 -2q2 -1 5 -1t4 1q2 0 2 0.5t2 1.5q0 2 2 4q0 1 0.5 2t0.5 2v19q0 1 1 1t1 -1v-19q0 -3 -1 -5q0 -2 -3 -5q-2 -2 -4 -2
q-4 -2 -5 -2t-2 0.5t-2 0.5t-1.5 0.5t-1.5 0.5l-3 2q-2 2 -2 3q-1 1 -1 4q-1 1 -1 3v19l1 1h1v-1v-19zM485 129l1 -1v-1v-1h-1h-19q-1 0 -1 1v31l1 1h1l1 -1v-29h17zM511 129v-1h1v-1l-1 -1h-19q-2 0 -2 1v31h1q0 1 1 1h1v-1h1v-29h17zM181 111v-1v-1h-1l-1 -1v1l-4 2
q-2 1 -5 1q-2 0 -4 -1q-1 0 -1.5 -0.5t-1.5 -0.5l-3 -3l-3 -3v-1l-1 -2v-4v-4q-1 0 2 -3l2 -3l3 -2q1 -1 3 -1q2 -1 4 -1h2q1 0 1.5 0.5t1.5 0.5t2 1q1 0 1 0.5t1 0.5h2v-1v-1q-4 -2 -5 -2q-2 -2 -6 -2q-3 0 -4 1l-5 2l-3 2l-3 4q0 1 -0.5 1.5t-0.5 2.5q-1 2 -1 4q0 3 1 5
q0 2 0.5 2t0.5 2l3 4q1 0 3 2l5 2h4q4 0 6 -1q1 0 5 -2zM183 97q0 2 0.5 2.5t0.5 2.5l2 4l3 4q1 0 3 2l4 2h5h4l4 -2q2 -2 4 -2l2 -4l2 -4v-5v-4l-2 -4q0 -2 -2 -4l-4 -2l-4 -2q-1 -1 -4 -1q-4 0 -5 1l-4 2l-3 2l-3 4l-2 4q0 2 -0.5 2t-0.5 2zM186 97q0 -2 0.5 -3t0.5 -2
l3 -5l5 -3q2 0 3 -0.5t3 -0.5t3 1q3 0 4 1l3 2q0 1 1 1.5t1 1.5q1 1 1 3q1 2 1 4q0 4 -1 6l-3 4q-3 3 -5 3q-4 2 -5 2q-3 0 -4 -1q-1 0 -2 -0.5t-2 -0.5l-3 -3q0 1 -2 -3q-1 0 -1 -1v-2q0 -1 -0.5 -1.5t-0.5 -2.5zM256 97q0 -10 1 -15q0 -1 -1 -1h-1v1l-3 27l-11 -25l-1 -1
h-1l-1 1l-2 6t-3 7l-6 12l-3 -27v-1h-1h-1v1l3 31l1 1h2v-1l12 -26l11 26v1h1h1h1v-1zM295 97q0 -4 0.5 -7.5t0.5 -7.5v-1h-1q-1 0 -1 1l-3 27l-11 -25q0 -1 -1 -1h-1v1l-6 13q-4 6 -5 12l-3 -27q0 -1 -1 -1h-1l-1 1l3 31l1 1h2v-1l12 -26l12 26v1h1h1l1 -1q0 -4 0.5 -8
t0.5 -8zM324 114l1 -1v-1v-1h-1h-19v-11h16v-1v-2h-16v-13h20v-1v-1v-1h-22h-1v1v31v1h1h21zM343 114q2 0 2.5 -0.5t2.5 -0.5q1 0 3 -2t2 -4q0 -1 0.5 -1t0.5 -1v-1v-4l-2 -2q0 -1 -2 -3q-1 0 -2 -1l5 -12h1v-1h-1h-1q-1 0 -1 1l-6 11h-2h-11v-11v-1h-1q-1 0 -1 1v31v1h1h12
zM343 95h2q0 1 1 1l2 1l2 2q0 1 0.5 1t0.5 1t0.5 1t0.5 2l-1 2l-2 3l-2 2h-4h-11v-16h11zM386 111v-1l-1 -1v-1l-1 1l-5 2q-1 1 -4 1q-2 0 -4 -1q-1 0 -1.5 -0.5t-1.5 -0.5l-3 -3q-2 -2 -2 -3q-2 0 -2 -3v-4v-4q-1 0 2 -3l2 -3l3 -2q1 -1 3 -1q2 -1 4 -1h2l2 1q2 0 3 1l2 1
h1h1v-1v-1q-4 -2 -5 -2q-2 -2 -6 -2q-3 0 -5 1l-3 2l-4 2q-2 2 -2 4q-2 2 -2 4q-1 2 -1 4q0 3 1 5q0 2 0.5 2t1.5 2l2 4l4 2l3 2h5q4 0 6 -1q1 0 5 -2zM392 113v1h1h1h1v-1v-31q0 -1 -1 -1h-1q-1 0 -1 1v31zM400 82v1q1 0 1 1l12 29v1h1h1q0 -1 1 -1l13 -31q0 -1 -1 -1h-1
q-1 0 -1 1l-3 7h-17q0 -2 -2 -4q0 -1 -0.5 -1.5t-0.5 -1.5t-1 -1h-1q-1 0 -1 1zM407 92h15l-7 18zM454 84h1v-1v-1v-1h-1h-19q-1 0 -1 1v31v1h1h1v-1v-29h18zM214 40q1 1 1 4l2 4l3 6q0 1 2 5q0 1 2 5q0 2 2 4h2l-13 -32v-1h-1q-1 0 -1 2l-13 30l-1 1h1h1h1q0 -2 2 -4l2 -5
l2 -5l2 -6l2 -4zM255 68h1v-1v-1h-1h-20v-12h16h1v-1v-1h-1h-16v-13h21v-1v-1v-2h-23v1v1v31h1h21zM274 68h4l4 -3q2 0 2 -3q1 -1 1 -4v-3l-2 -3l-2 -2q-1 0 -2 -1l5 -12q1 0 1 -1l-1 -1h-2v1l-6 12h-2h-11v-11v-2h-1q-1 0 -1 2v31h1h12zM273 50h1h2h1q2 2 3 2v2q2 0 2 2v2
v3q0 1 -1 1.5t-1 1.5l-1 1h-1q-1 1 -4 1h-11v-16h10zM289 41q0 1 1 1l1 1v-1q1 -1 3 -1q1 -2 2 -2l2 -1h3h4q1 0 1.5 0.5t1.5 0.5l2 2q1 2 1 4q0 1 -1 2q0 1 -1 1q0 2 -2 2h-2q-1 0 -2 1q-1 0 -1 0.5t-1 0.5q-3 0 -5 1q-1 0 -3 2l-2 2q-1 1 -1 3q0 3 1 4q0 1 2 3q1 1 4 1
q1 1 4 1q4 0 6 -1q1 0 4 -3h1v-1l-1 -1h-1l-2 2h-2q0 1 -2 1q-1 0 -1.5 0.5t-1.5 0.5t-1.5 -0.5t-1.5 -0.5t-1.5 -0.5t-1.5 -0.5l-2 -2v-3v-1q0 -1 0.5 -1t0.5 -1l1 -1q2 0 3 -1h1l2 -1q3 0 3 -1q2 0 3 -1h3q0 -2 2 -2l1 -2v-3v-4q-1 -2 -1.5 -2t-1.5 -1l-4 -2q-2 -1 -5 -1
h-3q-1 0 -3 2q-2 0 -3 1t-1.5 1t-1.5 2zM319 68h1h1h1h1v-31l-1 -2h-1q-2 0 -2 2v31zM328 52v5q2 2 2 4l3 3l3 3q2 1 4 1q2 1 5 1t4 -1q3 0 4 -1l4 -3q2 -2 2 -3l2 -4q0 -2 0.5 -2.5t0.5 -2.5t-0.5 -2.5t-0.5 -1.5t-2 -5l-1 -1l-1 -1q-1 -2 -2 -2.5t-2 -1.5q-1 0 -1.5 -0.5
t-2.5 -0.5q-1 -1 -4 -1t-5 1q-1 0 -1.5 0.5t-2.5 0.5l-3 4q-1 0 -1.5 1t-1.5 1q0 1 -2 5v4zM331 52q0 -4 1 -6q0 -1 1 -2t1 -2q2 -1 3 -2t2 -1q2 -1 6 -1h4l3 2l3 2q2 2 2 3l2 3v4q0 4 -1 6l-3 4q-2 3 -4 3q-2 1 -6 1h-4q-1 -1 -3 -1l-4 -3q0 -2 -2 -3q0 -2 -1 -3v-4z
M393 68h1h1v-31v-2h-2v1l-23 29v-28v-2h-1q-1 0 -1 2v31h1h1l6 -7l6 -7l6 -7q1 -2 5 -6v27zM402 38q0 1 1 1h1h1v-1v-1v-1v-1h-2v1q-1 0 -1 1v1zM213 11q-3 0 -4 -1q-1 0 -3 -2q-1 0 -3 -2t-2 -3q-2 -2 -2 -3v-4v-4q0 -1 2 -3q0 -1 2 -3l3 -2q1 -1 3 -1q2 -1 4 -1q3 0 4 1
q1 0 5 2v9h1h1v-10v-1h-1l-5 -3q-1 0 -2 -0.5t-3 -0.5q-3 0 -5 1q-1 0 -1.5 0.5t-1.5 0.5l-4 3q-1 0 -1 2q0 1 -1 1q-2 4 -2 5q-1 1 -1 4t1 5q0 2 2 4q0 1 2 3l4 3q1 0 3 2h5q4 0 7 -1q0 -1 1 -1h1l1 -1l1 -1v-1l-1 -1h-1l-5 3q-1 0 -1.5 0.5t-2.5 0.5zM253 13v-1v-1v-1h-20
v-12h16h1v-2h-1h-16v-13h20q1 -1 1 -2l-1 -1h-22v1v31v1h22zM280 13h1l1 -1v-1h-1l-1 -1h-10v-29q0 -1 -1 -1t-1 1v29h-11l-1 1v1l1 1h23zM300 12v1h1h1h1v-1v-31q0 -1 -1 -1h-1q-1 0 -1 1v31zM332 13h1v-1v-1l-1 -1h-10v-29q0 -1 -1 -1h-1q-1 0 -1 1v29h-10l-1 1v1v1h1h23z
M350 -19q0 1 0.5 1t0.5 1l12 29v1h1h1v-1l14 -31v-1h-1h-1h-1l-3 8h-17q-2 -2 -2 -4q0 -1 -0.5 -2t-0.5 -2h-1h-1h-1v1zM357 -9h14l-7 17zM401 13h1v-1v-1q0 -1 -1 -1h-10v-29q0 -1 -1 -1q-2 0 -2 1v29h-10l-1 1v1v1h1h23zM407 7h1h1h1v-1v-1h-1h-1h-1v2zM407 -19v1v1h1h1
q1 0 1 -2v-1h-1h-1h-1v1zM25 417q1 1 1 1.5t1 1.5t3 1q3 0 3 -2q1 -1 1 -3t1 -2l2 -2l7 -1q0 3 2 5h3q3 0 3 -1q1 -1 1 -5l14 -2q1 0 1.5 -0.5t2.5 -0.5l3 -3q1 -1 1 -1.5t1 -1.5t1 -4v-2q0 -2 -1 -3l-1 -1q-1 -1 -3 -1q-1 0 -3 2q-1 1 -1 3v3q-1 0 -1.5 0.5t-1.5 0.5l-13 2
l-2 -4q-1 -1 -4 -1q-1 0 -3 2q0 1 -0.5 1.5t0.5 2.5l-7 1q-2 1 -2.5 1t-2.5 1l-3 3q-2 2 -2 4q-1 2 -1 5zM73 425q0 -1 -2 -3h-4l-12 3l-6 3q-3 3 -4 5q-2 4 -2 6v7q1 1 1 1.5t2 1.5h3q1 0 3 -2v-3v-4q0 -1 1 -2q0 -1 2 -3q1 0 1.5 -0.5t1.5 -0.5l12 -3l3 -3v-3zM54 474
q0 2 3 5q2 2 6 4q2 0 3 0.5t3 0.5q5 0 7 -1q2 -2 2 -3q0 -2 -1 -3l-7 -17q5 0 6 4q1 1 1 2v1v1v2l2 2l2 1q1 0 1.5 -0.5t1.5 -0.5l2 -2v-5q0 -1 -0.5 -2t-0.5 -3q-2 -4 -4 -5q-3 -3 -6 -4q-2 0 -3 -0.5t-3 -0.5t-3.5 0.5t-3.5 0.5q-2 1 -2.5 2t-2.5 2q-1 2 -2 3t-1 3
q-2 4 -2 6q0 3 2 7zM68 474q-3 0 -4 -1q-2 -2 -2 -3q-1 -1 -1 -4q0 -1 2 -3zM75 513q2 4 4 5q4 2 6 2q3 1 7 1q2 -1 3 -1t3 -2q2 0 2 -2q0 -3 -1 -4l-10 -15q4 0 6 3q1 0 1 2l1 1v1v2q1 0 1.5 0.5t1.5 0.5q0 1 2 1l2 -2l2 -2q0 -3 -1 -5q0 -2 -2 -4q-1 -2 -4 -5q-4 -2 -6 -2
q-4 -1 -7 0q-2 0 -6 2q-2 1 -5 4q-2 4 -3 7v6q1 2 1 3t2 3zM89 512q-2 0 -2.5 -0.5t-1.5 -0.5l-3 -3q0 -1 -0.5 -1.5t-0.5 -1.5q0 -3 1 -4zM111 573q1 1 1.5 1t1.5 1q1 0 3 -2t2 -3t-2 -3q0 -1 -0.5 -1.5t-0.5 -1.5q1 -1 1 -2l5 -5q2 2 4 2q3 0 4 -1q0 -1 0.5 -1.5t0.5 -1.5
q0 -2 -2 -4l9 -10q2 -2 3 -4q0 -1 0.5 -1.5t0.5 -1.5v-4l-2 -4l-1 -2l-2 -1q-1 -1 -3 -1l-2 2q-1 0 -1 3q0 2 1 3t1 2l-1 2l-10 10q-2 -2 -4 -2q-1 0 -3 2q-1 1 -1 3t2 4l-5 5q-2 2 -3 4q0 1 -0.5 2t-0.5 2q0 2 0.5 3t0.5 2q1 2 3 4zM143 585l6 3h6q2 -1 3 -1t3 -1
q2 -2 3 -2.5t2 -2.5q3 -3 3 -6q1 -3 0 -7q0 -2 -2 -6q-1 -2 -2 -2.5t-3 -2.5t-6 -2q-2 -1 -6 -1q-2 1 -3 1t-3 2q-4 2 -5 4l-3 6v7q0 2 2 6q1 2 2 2.5t3 2.5zM148 577q-2 0 -2 -2q-1 -1 -1 -3v-3l1 -2l3 -3q1 0 2 -1h3q1 1 1.5 1t1.5 1q2 0 2 2q1 1 1 3v3q0 2 -1 3t-5 3
q-4 0 -6 -2zM186 572q-1 0 -1.5 -0.5t-2.5 0.5q-2 0 -2 2l-6 11q-2 4 -2 7q0 4 1 6l3 6q3 3 5 4q1 0 1.5 0.5t2.5 -0.5q2 0 2 -2q1 -1 1 -3q-2 -3 -3 -3l-2 -2q-1 -1 -1 -1.5t-1 -1.5v-3q0 -1 0.5 -1.5t0.5 -1.5l6 -11v-3q0 -1 -2 -3zM231 626q2 1 7 1q2 -1 3 -1t3 -1l5 -5
l3 -6q0 -2 0.5 -3t-0.5 -3q0 -3 -2 -7q-1 -1 -1.5 -2t-2.5 -2q-3 -3 -6 -3q-3 -1 -8 -1l2 -7q0 -3 -1 -4q0 -2 -3 -2h-3q-2 2 -2 3l-6 23q-2 3 0 6q0 4 2 6q2 4 4 5q3 3 6 3zM228 608q0 -1 0.5 -1.5t0.5 -1.5q1 -1 1.5 -1t1.5 -1t2 -1h3q2 1 3 2q2 0 2 2q1 1 1 3v3
q0 1 -0.5 1.5t-0.5 1.5q-1 1 -1.5 1t-1.5 1q-1 0 -1 0.5t-1 0.5h-4l-2 -2l-2 -2q-1 -1 -1 -3v-3zM275 634q4 0 6 -1l6 -3q3 -3 4 -5q2 -4 2 -7q0 -2 -1 -2q-2 -2 -3 -2l-19 -1q3 -4 7 -4q1 0 2 1h1l1 1h2q1 0 2 -1l2 -1q0 -1 0.5 -1.5t0.5 -1.5t-0.5 -1t-0.5 -1q-2 -1 -4 -3
q-2 0 -3 -0.5t-2 -0.5q-5 0 -7 1q-4 2 -5 3q-3 2 -5 5q-1 2 -1 3.5t-1 3.5q0 4 1 6l3 6q2 1 2.5 2t2.5 2q4 2 7 2zM282 621q-2 3 -3 3q-1 1 -3 1t-2.5 -0.5t-1.5 -0.5q-2 -2 -2 -4zM305 601q-2 0 -3 1t-1 4v13q1 2 1 3t1 3t2 2.5t2 2.5l6 3q2 1 6 1q1 -1 2 -1h1q2 -2 2 -4
q0 -1 -2 -3q-1 -1 -3 -1h-3q-1 -1 -1.5 -1t-1.5 -1l-2 -2v-3l-1 -13q0 -1 -2 -3q-1 -1 -3 -1zM356 629q1 0 3 -2q1 -1 1 -3l-2 -3q-1 -1 -4 -1l-11 2h-2l-1 -1v-2q1 0 1 -0.5t1 -0.5l8 -1q1 0 3 -2l3 -3q1 -1 1 -1.5t1 -1.5v-4l-2 -4q-1 -2 -1.5 -2t-1.5 -1l-4 -2h-4l-13 3
q-1 0 -1.5 0.5t-1.5 0.5v4q0 2 1 3t4 1l12 -3q2 0 3 2q0 2 -2 2l-8 1q-1 0 -3 2l-3 3q-1 1 -1 3q-1 3 0 4q0 3 1 4l3 3q2 2 4 2h4zM389 619q4 -2 6 -4q3 -3 4 -5q0 -2 0.5 -3t0.5 -3q0 -5 -1 -7l-3 -6l-6 -3q-2 -2 -6 -2t-7 1q-4 2 -5 4q-2 1 -4 5t-2 6q0 4 1 7q2 4 4 5
q1 2 5 4t6 2q5 0 7 -1zM386 610q-1 1 -3 1q-1 0 -1.5 -0.5t-1.5 -0.5q-2 0 -2 -2q-2 0 -2 -2q0 -1 -0.5 -1.5t-0.5 -1.5q0 -2 0.5 -2t0.5 -1q1 -1 1 -1.5t1 -1.5t3 -1q1 -1 3 -1t3 1l2 2l2 2q0 4 -1 6q-1 3 -4 4zM431 600q2 -1 2.5 -2t2.5 -2l3 -6v-7q0 -2 -2 -6l-6 -11
q-2 -2 -3 -2h-4q-1 1 -1 1.5t-1 1.5q0 2 1 3l6 11q0 1 0.5 1.5t0.5 1.5v3q-1 1 -1 1.5t-1 1.5l-2 2q-1 0 -1.5 0.5t-1.5 0.5h-3l-2 -1q-2 -2 -2 -3l-7 -11q0 -2 -3 -2q-2 0 -3 1q-2 0 -2 2v4l6 11l5 5q4 2 6 2q2 1 6 1q1 0 7 -2zM469 572q2 -1 4 -5q1 -2 1 -6t-1 -6
q0 -4 -3 -5l-8 -10q-1 -1 -1.5 -1t-1.5 -1q-1 0 -1.5 0.5t-1.5 0.5q-2 4 -2 5h-1q-1 0 -1.5 0.5t-1.5 0.5l-4 2q-2 2 -3 4t-2 5q-2 4 0 9q0 1 0.5 1.5t0.5 1.5q1 1 1 1.5t1 1.5l3 3q1 0 3 2q6 2 9 1q5 0 9 -4h1v-1zM452 554q1 0 1.5 -0.5t1.5 -0.5h3h3l2 2q1 1 1 1.5t1 1.5
v3q0 1 -0.5 1.5t-0.5 1.5q0 2 -2 2q-2 2 -3 2h-3q-2 0 -2 -1q-1 0 -3 -2q-1 0 -1 -2q-1 -1 -1 -3q1 -1 1 -3q1 -1 1 -1.5t1 -1.5zM500 558q1 -1 1 -3q0 -1 -0.5 -1t-0.5 -1v-1l-21 -19l-1 -2q0 -2 1 -3t1 -3t-1 -3t-3 -1t-3 1l-1 1q-2 2 -2 4q-1 1 -1 4t1 5q1 1 1.5 2t1.5 2
l20 19h4q2 0 3 -1zM522 513q1 -1 1 -4q-1 -1 -1 -1.5t-1 -1.5l-11 -6q-2 0 -2 -2q-2 -2 -2 -3v-3q0 -2 1 -3l2 -2l2 -1q1 -1 3 -1q1 1 3 1l11 7h4q1 0 3 -2v-3q0 -3 -2 -3l-11 -6q-2 -2 -3 -2t-3 -1q-4 0 -7 1q-4 0 -5 3q-3 2 -5 5q-2 4 -2 6v6q1 4 3 6q2 3 5 5l11 6
q1 1 3 1zM550 455v-4q-2 -2 -3 -2h-3q-2 2 -2 3l-5 11q0 1 -1 1h-1l-1 -1q-1 -1 0 -2l2 -7q1 -1 1 -4t-1 -4t-1 -1.5t-1 -1.5q-2 -2 -4 -2q-1 -1 -4 -1q-1 0 -2 0.5t-2 0.5l-3 3l-3 3l-4 12q-1 2 -0.5 2.5t0.5 1.5q0 2 2 2q3 1 4 0q2 0 2 -2l5 -12q0 -3 2 -1q3 0 1 2l-2 7
q-1 1 -1 4t1 4q2 2 2 3q2 2 4 2q1 1 4 1t4 -1q1 0 3 -2t3 -4zM559 421v-6l-3 -6q-2 -3 -5 -5q-2 -2 -6 -3q-2 0 -3 1t-1 3l-4 19q-3 -5 -3 -8l1 -1q0 -1 1 -2v-1q1 0 1 -1v-3l-2 -2h-2h-3q-1 1 -1.5 2t-1.5 2t-1 2t-1 3v6l3 6q2 3 5 5l6 3h6l6 -3q3 -2 5 -5zM547 413l3 3v4
q0 1 -2 3t-3 2zM247 602v-1v-1h1l1 -1h1v1l-1 1q-1 0 -1 1h-1zM106 33h1v-2v-1l-11 -1l-8 -9l23 2q1 0 1 -1l2 -1v-1h-1l-28 -3h-1v1l-1 1q0 1 1 1l7 10l-12 -2h-1v2q-1 0 -1 1h1l17 21h1v1l1 -1v-2l-15 -18zM130 -1l2 -2v-1v-1l-11 -2l-5 -11l22 6q0 1 1 0l1 -1v-1l-27 -8
h-1l-1 1h-1l1 1l5 11l-11 -3h-2v2l13 25h2v-2v-1l-11 -20zM160 -31h1l2 -2v-1l-10 -5l-4 -11l21 11h1l1 -2v-1l-24 -13h-1h-1l-1 1v1l4 12l-11 -6h-1l-1 1v1l8 27h1l1 -1l1 -1v-1l-8 -21zM165 -68h-1l-1 2h-1l1 2h1h2v-2zM175 -75l-1 1h1l1 2l25 11l-14 7q-1 1 -1 2l1 1l1 1
l18 -10q1 0 1 -1l-1 -2q-1 0 -1 -1l-24 -10l14 -7q1 0 1 -1v-1l-1 -1h-1h-1zM232 -70q1 0 1 -2l-1 -1q0 -1 -1 -1l-14 6l-3 -7l11 -4l1 -1v-1l-1 -2h-1l-11 4l-4 -8l15 -6v-1v-2h-2l-17 6v1l10 25zM258 -77h1v-1v-2l-1 -1h-1l-7 2l-6 -22v-1h-1h-2v1v1l5 22l-7 2h-1v1l1 2h1
zM262 -105l-1 -1l-2 1h-1l1 1l13 24q1 0 1 1h1l1 -1h1v-1l7 -27l-1 -1l-2 1h-1l-1 6l-13 2l-2 -3zM267 -97l10 -2l-4 14zM295 -83v1h18v-1v-1v-1h-15v-9h6h6v-1v-2v-1h-12v-11h-1h-2h-1zM334 -79h4q3 0 3 -1l4 -2q2 -2 3 -2q0 -2 0.5 -2.5t0.5 -1.5q1 -1 1 -3q1 -3 0 -4
q0 -3 -1 -4q0 -2 -1 -3q-2 -2 -3 -2q-2 -2 -3 -2q-1 -1 -4 -1q-1 -1 -4 0q-2 0 -3 1h-2q-1 0 -1 1l-3 3l-2 3q0 3 -1 4v4q1 1 1 3q0 1 2 3q0 1 2 3l4 2q1 1 3 1zM325 -95q1 -1 1 -2l2 -3l2 -2q1 0 2 -1l2 -1h4q1 0 1 0.5t1 0.5q1 1 3 1q0 2 2 2q0 2 1 3q0 1 0.5 1t0.5 1v3
l-2 4q0 1 -1 1.5t-1 1.5l-4 2h-5q-1 0 -2 -1q-2 0 -2 -1l-2 -2l-2 -2q0 -2 -1 -3v-3zM384 -96l-22 16l6 -20q0 -1 -1 -1l-2 -1q-1 0 -1 1l-7 24v1l1 1h2h1l21 -15l-6 20h1l1 1h1v-1l8 -25q1 0 0.5 -0.5t-1.5 -0.5h-2zM405 -58h1v-1l1 -1v-1h-1l-7 -3l9 -22v-1h-2l-10 21
l-8 -3l-1 2v1h1zM429 -51h-1h-2h-2q-1 0 -2 -1q-1 0 -1 -0.5t-1 -0.5l-1 -2v-2v-1q1 -1 2 -1h2h3q1 0 3 1q1 0 1.5 0.5t1.5 0.5h3q1 0 3 -1l2 -2v-4v-3q0 -1 -2 -3q0 -2 -1 -2t-2 -1l-3 -2h-2h-3q-2 0 -3 1h-1v1l1 1v2h1v-1q2 0 2 -1q2 0 2 0.5t1 0.5t2 1h1l2 2q1 0 1 2
q1 0 1 2q0 1 -1 2q0 1 -1 1h-2h-3q-1 0 -1 -0.5t-2 -0.5q-1 0 -2 -0.5t-2 -0.5h-3l-2 1l-2 2q-1 1 -1 3v3q2 2 2 3l4 3h2q1 0 1 0.5t1 0.5h3q1 0 2 -1h1l-1 -2v-1h-1zM456 -57v-2l-2 -1h-1l-2 1v2l2 1h1v-1h2zM466 -18l1 -2v-1h-1q-2 0 -3 -1q-1 0 -1.5 -0.5t-1.5 -0.5
l-3 -4v-4v-4q0 -2 2 -4t3 -2q2 -1 4 -1h4l4 3q1 0 1 1t1 1q0 1 1 2v2h1h2h1v-1q0 -1 -2 -5q-1 -1 -1 -1.5t-2 -1.5q-2 -2 -3 -2l-3 -2h-4q-2 0 -4 1l-1 1q-1 0 -1 1q-3 0 -3 2l-3 3q0 1 -0.5 1.5t-0.5 2.5v3v4l2 3q2 2 2 3l4 2q1 1 5 1zM477 0l3 3q1 0 1.5 0.5t1.5 0.5
q2 1 4 1h3q2 0 2.5 -0.5t1.5 -0.5l3 -2l3 -3q1 -2 1 -4q1 -1 1 -3v-4q-1 0 -1 -1v-2q0 -3 -2 -3l-3 -3l-3 -2h-4h-3q-3 0 -3 1q-2 0 -4 2t-3 2q-1 2 -1 4q-1 1 -1 4v3q0 1 0.5 1.5t0.5 2.5q1 0 1 1t1 2zM481 -18q2 0 3 -1q1 0 1 -0.5t1 -0.5h3q1 0 3 1q1 1 2 1q2 0 2 2t2 2
v3v3v2q0 1 -2 3q0 1 -1 2l-4 2h-4q-2 0 -4 -1q-1 -1 -1.5 -1t-1.5 -2l-2 -2v-2q-2 -2 0 -3v-2q0 -2 0.5 -2t0.5 -1q2 -2 2 -3zM521 15h-1l-21 3l17 -12v-1l-1 -2h-1l-21 15v1v1l1 2q1 1 2 0l20 -3l-13 17v1v1l2 2l24 -10l1 -1l-1 -2q0 -1 -0.5 -1t-0.5 1l-19 8l13 -17v-1z
M267 543h1v-1q0 -1 -1 -1h-11v-30v-1h-1q-1 0 -1 1v30h-10q-1 0 -1 1v1h1h23zM286 543h4l3 -3q2 -2 2 -3q1 -2 1 -4v-3l-1 -2q-2 -4 -2 -3q-1 -1 -3 -1l6 -13v-1h-1h-1q-1 0 -1 1l-6 12v-1h-1h-11v-11l-1 -1h-1q-1 0 -1 1v32h1h13zM285 525h2q1 0 2 1h2l1 2l1 2q1 1 1 3
t-1 3q0 -1 -2 3l-2 1q-1 1 -3 1h-11v-16h10zM302 543h1h1h1v-32l-1 -1h-1q-1 0 -1 1v32zM310 511v1q0 1 1 1l12 30h1h1l14 -32q0 -1 -1 -1h-1q-1 0 -1 1l-3 7h-17l-2 -3q0 -2 -0.5 -2.5t-0.5 -1.5t-1 -1h-1q-1 0 -1 1zM317 521h15l-8 18zM364 513q1 0 1 -1v-1q0 -1 -1 -1
h-19q-2 0 -2 1v32h1h1h1h1v-30h17zM219 469q0 1 0.5 2t0.5 3q2 2 2 4q2 4 2 5q2 2 2 6q2 2 2 4q2 2 2 5h1h1h1v-1l-13 -32h-1h-1h-1l-12 32h-1v1h1h1h1q1 -2 1 -5l3 -4q0 -2 2 -6l2 -5q0 -2 2 -4q0 -3 2 -5zM260 498q1 0 1 -1v-1v-1h-1h-19v-12h15h1v-2h-1h-15v-13h19
q1 0 1 -1v-1q0 -1 -1 -1h-21h-1v1v31v1h1h21zM280 498h1q1 0 1 -0.5t1 -0.5q2 0 4 -2q0 -1 1 -1.5t1 -1.5v-4v-3q0 -2 -1 -3l-2 -2l-2 -2l5 -12v-1h-2l-6 13q-1 0 -1 -1h-11v-11l-1 -1h-1q-1 0 -1 1v32h1h13zM278 480h2h2q1 1 2 1l2 2v1q0 1 1 1v3v3l-2 2l-3 2h-2h-11v-15h9
zM294 471l1 1h1l2 -2q2 -2 3 -2t3 -1h2q2 0 4 1h1q1 0 2 1l2 2q1 1 1 3t-1 2q0 2 -1 2l-1 1q-1 0 -1.5 0.5t-1.5 0.5t-2 1h-2q-3 0 -5 2q-3 0 -3 1l-3 3v3q0 2 1 3q0 1 2 3t3 2h5h6q1 -1 2 -1.5t2 -2.5h1q0 -1 -1 -1v-1h-1v1l-2 1q-1 0 -2 1q-1 0 -2 1h-3q-2 0 -4 -1l-2 -1
q-2 0 -2 -2v-2v-2q0 -1 1 -2q1 0 1 -1h2l2 -1q1 -1 3 -1h2q2 0 3 -1t2 -1l2 -2l2 -2v-3q0 -2 -1 -4l-2 -3l-4 -2h-5h-3q-3 0 -3 1q-1 0 -3 2q-2 0 -2 2h-1v1zM324 497q0 1 1 1h1h1v-1v-31q0 -1 -1 -1h-1q-1 0 -1 1v31zM333 481q0 4 1 5q0 3 1 4l3 4q1 0 3 2q2 1 2 1.5t2 0.5
h5h4q2 0 4 -2q0 -1 2 -1q1 0 1 -1q3 -3 3 -4q2 -2 2 -4q0 -1 0.5 -2t0.5 -3q0 -1 -0.5 -1.5t-0.5 -2.5t-2 -4q0 -2 -3 -3q0 -2 -1 -2t-2 -1q-2 -2 -4 -2h-4h-5q-2 0 -2 0.5t-2 1.5q-1 1 -1.5 1t-1.5 2l-3 3q-1 1 -1 4q-1 2 -1 4zM336 481v-5l3 -4l5 -4q2 0 3 -0.5t3 -0.5
t4 1h1q1 0 2 1l3 3q1 0 1 1t1 1l2 4v3q0 4 -1 6l-3 5q-4 2 -5 2q-2 2 -5 2t-4 -1q-1 0 -1 -0.5t-1 -0.5h-1l-4 -2q0 -1 -2 -3q0 -1 -0.5 -1.5t-0.5 -2.5v-4zM397 497q0 1 2 1h1v-32q0 -1 -1 -1h-1h-1l-22 29v-28v-1h-2v1v31v1h2l6 -7l5 -8l6 -7q4 -4 5 -6v27zM96 128v1h1
l12 30q0 1 1 1h1v-1h1l13 -31l-1 -1h-1q-1 0 -1 1l-4 7h-16l-2 -4q0 -1 -0.5 -1.5t-0.5 -1.5l-1 -1h-1q-1 0 -1 1zM103 138h15l-8 18zM136 131q0 2 2 4q0 2 0.5 3t0.5 2l3 5q0 1 2 5q1 2 1 3t1 2q0 2 2 4v1h1l1 -1l-13 -31v-1h-1q-1 0 -1 1l-13 31v1h1q1 0 1 -1l2 -4
q1 -1 1 -5q1 -1 3 -5t2 -5q1 -1 1 -2t1 -3q2 -2 2 -4zM148 128v1l13 30v1h1q1 0 1 -1l13 -31v-1h-2v1l-4 7h-16q-2 -2 -2 -4q-1 -1 -1 -3l-1 -1h-1h-1v1zM154 138h15l-7 18zM202 130v-1v-1v-1h-20q-1 0 -1 1v31l1 1h1q1 0 1 -1v-29h18zM205 128v1l13 30q0 1 1 1h1v-1l13 -31
v-1h-1h-1v1l-3 7h-17l-2 -4q-1 -1 -1 -3l-1 -1h-2v1zM212 138h14l-7 18zM239 159q0 1 1 1h1v-1v-31v-1h-1q-1 0 -1 1v31zM262 160q2 0 2.5 -0.5t1.5 -0.5q2 0 3 -2l2 -2v-3q0 -4 -1 -4l-2 -4q1 0 2 -1q0 -1 0.5 -1t0.5 -1q1 0 1 -2l1 -2q0 -3 -1 -4q0 -1 -2 -3l-2 -2
q-1 -1 -4 -1h-15v1v31v1h13zM269 152q0 1 -1 2l-1 1l-1 1q-1 0 -1 1h-3h-11v-11h11h3l2 1q0 1 0.5 1t0.5 1q1 1 1 3zM270 137v2l-2 2l-1 1q-2 0 -2 0.5t-1 0.5h-13v-13h13h3l2 2q0 1 1 2v3zM298 130q1 0 1 -1v-1v-1h-1h-19q-1 0 -1 1v31q0 1 2 1l1 -1v-29h17zM326 160l1 -1
v-1v-1h-1h-19v-11h15h1v-1v-1v-1h-1h-15v-13h19l1 -1v-1q0 -1 -1 -1h-21h-1v1v31q0 1 1 1h21zM346 159q0 1 1 1h1q1 0 1 -1v-31q0 -1 -1 -1h-1q-1 0 -1 1v31zM381 159q0 1 1 1l2 -1v-31q0 -1 -2 -1h-1l-23 29v-28v-1h-1q-1 0 -1 1v31l1 1h1v-1l6 -6q4 -5 6 -7q1 -3 5 -7
l6 -7v27zM426 160l1 -1v-1v-1h-1h-19v-13h8h7h1v-1v-1v-1h-1h-15v-13q0 -1 -1 -1h-1q-1 0 -1 1v31l1 1h21zM433 140q0 -1 0.5 -2t0.5 -2l3 -4q2 -2 3 -2q2 -1 5 -1t4 1q2 0 2 0.5t2 1.5q0 2 2 4q0 1 0.5 2t0.5 2v19q0 1 1 1t1 -1v-19q0 -3 -1 -5q0 -2 -3 -5q-2 -2 -4 -2
q-4 -2 -5 -2t-2 0.5t-2 0.5t-1.5 0.5t-1.5 0.5l-3 2q-2 2 -2 3q-1 1 -1 4q-1 1 -1 3v19l1 1h1v-1v-19zM485 130l1 -1v-1v-1h-1h-19q-1 0 -1 1v31l1 1h1l1 -1v-29h17zM511 130v-1h1v-1l-1 -1h-19q-2 0 -2 1v31h1q0 1 1 1h1v-1h1v-29h17zM181 112v-1v-1h-1l-1 -1v1l-4 2
q-2 1 -5 1q-2 0 -4 -1q-1 0 -1.5 -0.5t-1.5 -0.5l-3 -3l-3 -3v-1l-1 -2v-4v-4q-1 0 2 -3l2 -3l3 -2q1 -1 3 -1q2 -1 4 -1h2q1 0 1.5 0.5t1.5 0.5t2 1q1 0 1 0.5t1 0.5h2v-1v-1q-4 -2 -5 -2q-2 -2 -6 -2q-3 0 -4 1l-5 2l-3 2l-3 4q0 1 -0.5 1.5t-0.5 2.5q-1 2 -1 4q0 3 1 5
q0 2 0.5 2t0.5 2l3 4q1 0 3 2l5 2h4q4 0 6 -1q1 0 5 -2zM183 98q0 2 0.5 2.5t0.5 2.5l2 4l3 4q1 0 3 2l4 2h5h4l4 -2q2 -2 4 -2l2 -4l2 -4v-5v-4l-2 -4q0 -2 -2 -4l-4 -2l-4 -2q-1 -1 -4 -1q-4 0 -5 1l-4 2l-3 2l-3 4l-2 4q0 2 -0.5 2t-0.5 2zM186 98q0 -2 0.5 -3t0.5 -2
l3 -5l5 -3q2 0 3 -0.5t3 -0.5t3 1q3 0 4 1l3 2q0 1 1 1.5t1 1.5q1 1 1 3q1 2 1 4q0 4 -1 6l-3 4q-3 3 -5 3q-4 2 -5 2q-3 0 -4 -1q-1 0 -2 -0.5t-2 -0.5l-3 -3q0 1 -2 -3q-1 0 -1 -1v-2q0 -1 -0.5 -1.5t-0.5 -2.5zM256 98q0 -10 1 -15q0 -1 -1 -1h-1v1l-3 27l-11 -25l-1 -1
h-1l-1 1l-2 6t-3 7l-6 12l-3 -27v-1h-1h-1v1l3 31l1 1h2v-1l12 -26l11 26v1h1h1h1v-1zM295 98q0 -4 0.5 -7.5t0.5 -7.5v-1h-1q-1 0 -1 1l-3 27l-11 -25q0 -1 -1 -1h-1v1l-6 13q-4 6 -5 12l-3 -27q0 -1 -1 -1h-1l-1 1l3 31l1 1h2v-1l12 -26l12 26v1h1h1l1 -1q0 -4 0.5 -8
t0.5 -8zM324 115l1 -1v-1v-1h-1h-19v-11h16v-1v-2h-16v-13h20v-1v-1v-1h-22h-1v1v31v1h1h21zM343 115q2 0 2.5 -0.5t2.5 -0.5q1 0 3 -2t2 -4q0 -1 0.5 -1t0.5 -1v-1v-4l-2 -2q0 -1 -2 -3q-1 0 -2 -1l5 -12h1v-1h-1h-1q-1 0 -1 1l-6 11h-2h-11v-11v-1h-1q-1 0 -1 1v31v1h1h12
zM343 96h2q0 1 1 1l2 1l2 2q0 1 0.5 1t0.5 1t0.5 1t0.5 2l-1 2l-2 3l-2 2h-4h-11v-16h11zM386 112v-1l-1 -1v-1l-1 1l-5 2q-1 1 -4 1q-2 0 -4 -1q-1 0 -1.5 -0.5t-1.5 -0.5l-3 -3q-2 -2 -2 -3q-2 0 -2 -3v-4v-4q-1 0 2 -3l2 -3l3 -2q1 -1 3 -1q2 -1 4 -1h2l2 1q2 0 3 1l2 1
h1h1v-1v-1q-4 -2 -5 -2q-2 -2 -6 -2q-3 0 -5 1l-3 2l-4 2q-2 2 -2 4q-2 2 -2 4q-1 2 -1 4q0 3 1 5q0 2 0.5 2t1.5 2l2 4l4 2l3 2h5q4 0 6 -1q1 0 5 -2zM392 114v1h1h1h1v-1v-31q0 -1 -1 -1h-1q-1 0 -1 1v31zM400 83v1q1 0 1 1l12 29v1h1h1q0 -1 1 -1l13 -31q0 -1 -1 -1h-1
q-1 0 -1 1l-3 7h-17q0 -2 -2 -4q0 -1 -0.5 -1.5t-0.5 -1.5t-1 -1h-1q-1 0 -1 1zM407 93h15l-7 18zM454 85h1v-1v-1v-1h-1h-19q-1 0 -1 1v31v1h1h1v-1v-29h18zM214 41q1 1 1 4l2 4l3 6q0 1 2 5q0 1 2 5q0 2 2 4h2l-13 -32v-1h-1q-1 0 -1 2l-13 30l-1 1h1h1h1q0 -2 2 -4l2 -5
l2 -5l2 -6l2 -4zM255 69h1v-1v-1h-1h-20v-12h16h1v-1v-1h-1h-16v-13h21v-1v-1v-2h-23v1v1v31h1h21zM274 69h4l4 -3q2 0 2 -3q1 -1 1 -4v-3l-2 -3l-2 -2q-1 0 -2 -1l5 -12q1 0 1 -1l-1 -1h-2v1l-6 12h-2h-11v-11v-2h-1q-1 0 -1 2v31h1h12zM273 51h1h2h1q2 2 3 2v2q2 0 2 2v2
v3q0 1 -1 1.5t-1 1.5l-1 1h-1q-1 1 -4 1h-11v-16h10zM289 42q0 1 1 1l1 1v-1q1 -1 3 -1q1 -2 2 -2l2 -1h3h4q1 0 1.5 0.5t1.5 0.5l2 2q1 2 1 4q0 1 -1 2q0 1 -1 1q0 2 -2 2h-2q-1 0 -2 1q-1 0 -1 0.5t-1 0.5q-3 0 -5 1q-1 0 -3 2l-2 2q-1 1 -1 3q0 3 1 4q0 1 2 3q1 1 4 1
q1 1 4 1q4 0 6 -1q1 0 4 -3h1v-1l-1 -1h-1l-2 2h-2q0 1 -2 1q-1 0 -1.5 0.5t-1.5 0.5t-1.5 -0.5t-1.5 -0.5t-1.5 -0.5t-1.5 -0.5l-2 -2v-3v-1q0 -1 0.5 -1t0.5 -1l1 -1q2 0 3 -1h1l2 -1q3 0 3 -1q2 0 3 -1h3q0 -2 2 -2l1 -2v-3v-4q-1 -2 -1.5 -2t-1.5 -1l-4 -2q-2 -1 -5 -1
h-3q-1 0 -3 2q-2 0 -3 1t-1.5 1t-1.5 2zM319 69h1h1h1h1v-31l-1 -2h-1q-2 0 -2 2v31zM328 53v5q2 2 2 4l3 3l3 3q2 1 4 1q2 1 5 1t4 -1q3 0 4 -1l4 -3q2 -2 2 -3l2 -4q0 -2 0.5 -2.5t0.5 -2.5t-0.5 -2.5t-0.5 -1.5t-2 -5l-1 -1l-1 -1q-1 -2 -2 -2.5t-2 -1.5q-1 0 -1.5 -0.5
t-2.5 -0.5q-1 -1 -4 -1t-5 1q-1 0 -1.5 0.5t-2.5 0.5l-3 4q-1 0 -1.5 1t-1.5 1q0 1 -2 5v4zM331 53q0 -4 1 -6q0 -1 1 -2t1 -2q2 -1 3 -2t2 -1q2 -1 6 -1h4l3 2l3 2q2 2 2 3l2 3v4q0 4 -1 6l-3 4q-2 3 -4 3q-2 1 -6 1h-4q-1 -1 -3 -1l-4 -3q0 -2 -2 -3q0 -2 -1 -3v-4z
M393 69h1h1v-31v-2h-2v1l-23 29v-28v-2h-1q-1 0 -1 2v31h1h1l6 -7l6 -7l6 -7q1 -2 5 -6v27zM402 39q0 1 1 1h1h1v-1v-1v-1v-1h-2v1q-1 0 -1 1v1zM213 12q-3 0 -4 -1q-1 0 -3 -2q-1 0 -3 -2t-2 -3q-2 -2 -2 -3v-4v-4q0 -1 2 -3q0 -1 2 -3l3 -2q1 -1 3 -1q2 -1 4 -1q3 0 4 1
q1 0 5 2v9h1h1v-10v-1h-1l-5 -3q-1 0 -2 -0.5t-3 -0.5q-3 0 -5 1q-1 0 -1.5 0.5t-1.5 0.5l-4 3q-1 0 -1 2q0 1 -1 1q-2 4 -2 5q-1 1 -1 4t1 5q0 2 2 4q0 1 2 3l4 3q1 0 3 2h5q4 0 7 -1q0 -1 1 -1h1l1 -1l1 -1v-1l-1 -1h-1l-5 3q-1 0 -1.5 0.5t-2.5 0.5zM253 14v-1v-1v-1h-20
v-12h16h1v-2h-1h-16v-13h20q1 -1 1 -2l-1 -1h-22v1v31v1h22zM280 14h1l1 -1v-1h-1l-1 -1h-10v-29q0 -1 -1 -1t-1 1v29h-11l-1 1v1l1 1h23zM300 13v1h1h1h1v-1v-31q0 -1 -1 -1h-1q-1 0 -1 1v31zM332 14h1v-1v-1l-1 -1h-10v-29q0 -1 -1 -1h-1q-1 0 -1 1v29h-10l-1 1v1v1h1h23z
M350 -18q0 1 0.5 1t0.5 1l12 29v1h1h1v-1l14 -31v-1h-1h-1h-1l-3 8h-17q-2 -2 -2 -4q0 -1 -0.5 -2t-0.5 -2h-1h-1h-1v1zM357 -8h14l-7 17zM401 14h1v-1v-1q0 -1 -1 -1h-10v-29q0 -1 -1 -1q-2 0 -2 1v29h-10l-1 1v1v1h1h23zM407 8h1h1h1v-1v-1h-1h-1h-1v2zM407 -18v1v1h1h1
q1 0 1 -2v-1h-1h-1h-1v1zM166 353q0 -4 -3 -7t-7 -3h-2q-4 0 -7 3t-3 7v38q-4 -1 -8 0q-3 0 -6 5q-2 4 -1 7q2 5 5 7q17 11 21 11q5 0 8 -4q3 -3 3 -8v-56zM217 389q3 1 3 4q0 2 -2 6q-2 1 -8 1q-3 0 -7 -2l-3 -3l-3 -3q-1 -2 -4 -5q-1 -1 -6 -1q-4 0 -7 3t-3 7t3 10
q2 3 10 9q3 2 6 3t5 2q2 0 4 0.5t4 0.5q5 0 8 -0.5t6 -1.5q5 -1 10 -6q5 -4 8 -9q2 -3 2 -11q0 -10 -8 -17l-17 -12h16q3 0 8 -3q3 -3 3 -8q0 -4 -3 -7q-5 -3 -8 -3h-47q-4 0 -5 1q-2 1 -2.5 2t-1.5 2q-2 4 -2 7q2 5 6 8zM316 418q4 -6 4 -8q0 -5 -3 -8l-16 -16q5 -1 11 -7
q5 -5 8 -11t3 -14t-3 -14q-4 -8 -7 -11q-5 -5 -12 -8q-6 -3 -14 -3q-3 0 -5.5 0.5t-5.5 1.5q-6 2 -9 4q-5 2 -8 6q-4 3 -5 8q-1 2 -1 5q1 2 1 3t1 2q1 3 4 4q1 1 5 1t7 -3l3 -3q1 -1 1.5 -2t1.5 -2q2 -2 3 -2q2 -1 7 -1q7 0 10 4q5 3 5 10q0 5 -5 10q-3 4 -10 4h-5h-2h-2
q-3 0 -6 3t-3 8q0 4 3 7l13 13h-17q-5 0 -8 3q-3 4 -3 8q0 5 3 8t8 3h39h3zM401 353q0 -4 -3 -7t-7 -3v-16q0 -3 -3 -6t-8 -3q-4 0 -7 3t-3 6v16h-27q-5 0 -8 3t-3 7v1l18 60q1 4 5 6q5 2 8 0q3 -1 7 -5q2 -5 -1 -9l-14 -42h15q0 4 3 7t7 3q5 0 8 -3t3 -7q4 0 7 -3t3 -8z
M441 390q7 0 13 -3q6 -2 12 -7q5 -5 8 -11q3 -8 3 -14q0 -9 -3 -15t-8 -11q-3 -4 -11 -8q-8 -3 -14 -3q-4 0 -10 2t-9 4q-5 2 -8 6q-4 3 -5 8q-1 2 -1 5q1 2 1 3t1 2q1 3 4 4q1 1 5 1t7 -3q3 -2 3 -3q1 -1 1.5 -2t1.5 -2q2 -2 3 -2q2 -1 6 -1q6 0 10 4q4 3 4 11q0 6 -4 10
q-6 4 -10 4h-23q-4 0 -7 3t-3 7v31q0 5 3 8t7 3h40q5 0 8 -3t3 -8t-3 -8t-8 -3h-29v-9h12zM60 279q8 0 14 -3q5 -2 13 -8q5 -5 8 -12q3 -8 3 -15v-29q0 -4 -3 -7q-2 -4 -7 -4q-4 0 -7 3t-3 7v29q0 3 -2 7l-3 6l-6 3q-4 2 -7 2t-7 -2q-2 0 -3 -1t-3 -2l-1.5 -3l-1.5 -3
q-2 -4 -2 -6v-29q0 -4 -3 -8q-3 -3 -7 -3q-5 0 -8 3t-3 7v29q0 7 3 15q3 7 8 12q6 6 13 9q6 3 15 3zM118 278q3 0 8 -3q3 -3 3 -7v-29q0 -4 1 -6q2 -5 4 -6q3 -3 6 -4q2 -1 7 -1q4 0 6 1l6 3q2 2 4 6q1 2 1 7v29q0 4 3 7t8 3q4 0 7 -3t3 -7v-29q0 -8 -3 -15q-2 -3 -3.5 -6
t-4.5 -6q-4 -4 -12 -8q-8 -3 -15 -3q-8 0 -15 3q-7 1 -12 8q-6 4 -9 12q-3 6 -3 14v30q0 4 3 7t7 3zM224 278q6 0 9 -1q4 -2 8 -5q7 6 18 6q5 0 11 -2q2 -2 4.5 -3t4.5 -3q4 -3 6 -9q3 -5 3 -11v-40q0 -3 -4 -6q-3 -3 -7 -3t-7 3t-3 7v39q0 3 -2 5q-4 2 -6 2q-3 0 -5 -2
t-2 -5v-39q0 -4 -3 -7t-8 -3q-4 0 -7 3t-3 6v40q0 3 -2 5t-5 2q-2 0 -6 -2q-2 -2 -2 -5v-40q0 -3 -3 -6t-7 -3q-3 0 -4 1q-2 0 -4 2q-1 1 -1 1.5t-1 1.5q-1 2 -1 4v39q0 5 2 11q4 6 7 9t9 6q6 2 11 2zM308 303q3 0 4 -1t2 -1t2 -1l2 -4q0 -1 0.5 -1.5t0.5 -2.5v-18q3 2 11 4
h12q8 -2 12 -4q2 -2 5 -3.5t5 -3.5q7 -7 8 -12q3 -8 3 -16t-3 -15q-2 -4 -8 -12q-8 -6 -13 -8q-6 -3 -14 -3t-15 3t-12 8q-6 6 -9 13q-3 6 -3 14v54q0 2 1 4q0 1 2 3q1 1 1.5 1t1.5 1q2 1 4 1zM319 239q0 -4 1 -6q2 -5 4 -6q2 -2 6 -4q2 -1 7 -1q4 0 6 1q3 1 6 4q2 1 4 6
q1 2 1 6q0 5 -1 7q-1 3 -4 6t-6 4q-2 1 -6 1q-5 0 -7 -1t-3 -2t-3 -2q-2 -2 -4 -6q-1 -2 -1 -7zM419 278q7 0 15 -3q7 -3 12 -9q6 -5 9 -12q3 -8 3 -15q0 -3 -3 -6q-2 -2 -8 -2h-42q4 -9 14 -9h5q1 0 1.5 0.5t1.5 0.5q1 1 3 1q0 1 3 1t5 -2q2 -1 2.5 -2t1.5 -2q1 -2 1 -6
q0 -3 -3 -6q-6 -4 -9 -5q-4 -1 -12 -1t-14 3q-5 2 -13 8q-6 8 -8 13q-3 6 -3 14q0 7 3 15q3 7 8 12q6 6 13 9q6 3 14 3zM434 248q-3 5 -6 7t-9 2q-5 0 -8 -2t-6 -7h29zM476 201q-6 0 -7 3q-2 1 -4 7v29q0 5 1 8t3 7q4 8 8 12q5 5 12 8t15 3q4 0 7 -3t3 -7q0 -5 -3 -8t-7 -3
q-5 0 -7 -1q-4 -2 -5 -4q-3 -3 -4 -6q-2 -4 -2 -7v-29q0 -4 -3 -7q-4 -2 -7 -2zM572 278q5 0 8 -3q2 -4 2 -7q0 -4 -3 -7t-7 -3h-27q-1 0 -1.5 -0.5t-1.5 -0.5q-2 -2 -2 -3q0 -2 2 -4q1 -1 3 -1h18q3 0 9 -2q5 -4 7 -6q3 -2 5 -7q2 -2 2 -9q0 -6 -2 -9q-1 -4 -5 -8t-8 -5
q-3 -2 -10 -2h-29q-4 0 -7 3q-4 4 -4 7q0 4 3 7q4 4 7 4h30q4 0 4 3q0 5 -4 5h-18q-6 0 -9 2q-3 1 -7 5q-2 2 -3 4l-2 4q-2 6 -2 9t2 9q1 4 5 8q3 3 8 5q2 2 9 2h28z" />
    <glyph glyph-name="three" unicode="3" horiz-adv-x="618" 
d="M252 526l1 -1q2 2 2 3.5t2 3.5l3 6q1 2 1.5 2.5l2.5 2.5q0 1 3 4h1q2 0 2 -1q1 0 1 -2v-1q-4 -3 -7 -9q-3 -3 -5 -9h2h2h3h4q2 0 2 -1v-1v-2l-1 -1h-4h-4h-6l-2 -5l-4 -10q0 -3 -0.5 -5t-0.5 -4t0.5 -3t0.5 -3q0 -1 2 -1h3l3 2l3 3q2 1 2 1.5t1 1.5h1l1 2v1q4 4 6 11
q1 2 1.5 5t2.5 6q-3 3 -3 6v3q1 1 1 3q1 0 1.5 0.5t1.5 0.5q1 1 2 1t2 -1q2 -2 2 -5l-1 -2q0 -2 -1 -4q2 0 2.5 -0.5t2.5 -0.5h4l3 -2q2 0 2 -1t0.5 -2t0.5 -2l-1 -2v-3l-2 -2q0 -2 -2 -4q0 -2 -0.5 -2.5t-0.5 -2.5l-2 -4q0 -2 -0.5 -2.5t-0.5 -1.5t1 -2q0 -1 2 -1q4 0 6 2
l5 4l3 3q0 4 2 10q1 4 2 7t4 8h1h2l1 -1q1 0 1 -0.5t-1 -0.5q-2 -3 -2.5 -6t-2.5 -5q-2 -8 -2 -12q0 -2 0.5 -3.5t0.5 -2.5q2 -2 3 -2q2 0 8 4q2 2 4 5t4 7q3 4 4 9q2 6 4 9q1 0 1 0.5t1 0.5h2q0 -1 1 -2l-1 -2q0 -2 -1 -3t-2 -3q0 -3 -2 -7l-2 -6l-2 -8q0 -2 -0.5 -3.5
t-0.5 -3.5q-1 -1 -1 -3h1q5 0 8 -1q2 0 6 -2q5 -2 5 -3l3 -3q2 -4 4 -10l-1 -2h-1h-2l-2 4q-2 7 -7 9q-5 3 -13 3h-3q0 -3 -2 -7l-3 -8l-6 -6q-4 -2 -8 -2h-3q-1 1 -3 1l-3 3q-1 2 -1 5q0 2 2 6q1 2 2 2.5t3 2.5t3 2t3 2q1 0 7 2q2 1 6 1q1 4 1 8q1 2 1 3q-2 -3 -8 -7
q-4 -2 -6 -2q-3 0 -7 4q-1 0 -1 1v2l-1 -1q-4 -4 -6 -5q-6 -2 -8 -2q-4 0 -6 2q-1 1 -1 6v4l2 6q0 1 2 5q0 2 2 4l1 2v2v1q0 1 -1 1l-3 2h-3q-2 0 -3 1q0 -3 -2 -7l-3 -7l-3 -6l-3 -5l-1 -1l-3 -4q-2 -1 -2.5 -2t-1.5 -1l-5 -3q-1 0 -1.5 -0.5t-2.5 -0.5q-4 0 -6 4t-2 9
q0 2 0.5 4.5t0.5 4.5q2 8 4 12l2 4h-4q-1 1 -2 1l-1 1q0 1 0.5 1t0.5 1q1 1 3 1h2h1zM322 472q2 4 2 6h-1q-4 0 -10 -4q-4 -2 -6 -4q-2 -4 -2 -5v-1q0 -1 1 -1q0 -1 1 -1q0 -1 2 -1h1q3 0 4 1q2 0 4 3q2 2 4 7zM140 535v1v1h1v1h1l17 -15l8 9h1v1h1l1 -1v-1l-10 -10
q0 -1 -1 -1q0 -1 -1 0zM159 556q0 1 1 1q0 1 1 1h1l16 -18v-1l-1 -1h-1zM171 566v1v1h1h1l15 -20v-1h-1h-1v-1l-1 1zM180 561v1l5 15v1h1h2v-1v-1l-5 -14v-1v-1h1h1h14q1 -1 2 -1v-1v-1h-2h-15h-1q0 1 -1 1l-1 1l-1 1v1zM198 584q-1 0 0 1q0 1 1 1q2 0 2.5 1t1.5 1l4 2
q1 1 3 1q0 1 1 1l1 1h1l1 -1v-1h-1l-12 -7l4 -8l4 2l3 2h1l2 2h1l1 -1v-1q-1 0 -1 -1l-10 -5l4 -8l12 7h1h1l1 -1v-1l-1 -1h-1l-1 -1l-12 -6h-1h-1v1l-5 10zM235 602l20 6v-1v-1v-1l-8 -2l6 -21v-2h-1h-1h-1l-6 22l-7 -2h-1l-1 1v1zM270 586l-4 23q0 1 1 1h1h1h1l1 -11
q2 0 3 0.5t3 0.5h4q1 1 3 1h1l-1 10l1 1v1h1h1v-1l3 -24v-1l-1 -1h-1l-1 1v1l-1 10l-15 -1l1 -11v-1l-1 -1h-1v2zM300 588v24v1h1h2v-1v-24v-1h-1q0 -1 -1 -1l-1 1v1zM314 588l-2 1q0 1 -0.5 1t-0.5 1h1h1h1l1 -1q1 0 1.5 -0.5t1.5 -0.5q0 -1 3 -1h3h3q0 1 1 1q1 1 1 2t1 1
q0 1 -0.5 1t-0.5 2h-2q0 2 -2 2q-1 0 -1.5 0.5t-1.5 0.5q-2 0 -2 0.5t-2 0.5l-1 1q-1 0 -1 1q-2 0 -2 2v3v2l2 2q1 1 3 1q1 1 5 1q1 -1 2 -1h2q1 -1 2 -1t1 -0.5t1 -0.5q0 -1 0.5 -1t0.5 -1v-1h-1h-2l-1 1q-1 1 -2 1q-1 1 -4 1h-3h-1q-1 0 -1 -1l-1 -1q-1 0 -1 -1v-2
q1 0 2 -1q0 -1 2 -1q0 -1 2 -1q1 0 2 -1q1 0 1.5 -0.5t1.5 -0.5q1 -1 2 -1l2 -2q1 -1 2 -1v-3v-1q0 -1 -0.5 -1t-0.5 -1l-2 -1q0 -2 -2 -2h-3h-4h-3q-2 0 -4 2zM356 592l3 11l1 1h1q4 -2 6 -2q1 -1 3 -1t2 -0.5t1 -0.5t1 -0.5t1 -0.5h1l1 -1l-1 -1h-1h-1l-12 4l-3 -9
q2 -1 4 -1q1 0 1.5 -0.5t1.5 -0.5t1 -0.5t1 -0.5h1v-1h1v-1v-1h-1l-11 4l-4 -10v-1h-1q-1 0 -1 1zM379 571q0 1 -0.5 1.5t-0.5 1.5q0 2 1 3v1q0 1 1 2v1q0 1 0.5 1t0.5 1l2 3q1 0 1 1l1 1q0 2 2 2q1 1 3 1h3q2 0 4 -2q3 -2 4 -3q1 0 1 -2q1 -1 2 -1v-1v-4q-2 -2 -2 -3l-1 -2
l-2 -4l-2 -2l-2 -2q-2 0 -3 -1q-2 0 -3 1q-2 0 -4 1l-4 2q0 1 -2 3zM381 574q0 -1 1 -2q0 -1 0.5 -1t0.5 -1q1 0 3 -2q1 0 1.5 -0.5t1.5 -0.5h3l1 1q2 0 2 1l2 2q0 1 1 2l1 1v3q1 0 1 2q1 1 1 2t-0.5 1t-0.5 1t-0.5 1t-0.5 1q-1 1 -3 1v1q-1 0 -1 0.5t-1 0.5h-1h-3h-2l-1 -2
l-2 -2l-1 -2l-1 -1q0 -2 -1 -3l-1 -2v-2zM402 557l15 19v1q1 0 2 -1v-1v-25l12 15h1h1h1v-1l-15 -20h-1l-1 1v1v25l-12 -16h-1l-1 1h-1v1zM441 555v1h1h1l13 -14l1 -1h-1q0 -1 -0.5 -1t-0.5 1l-6 6l-16 -16l-1 -1q0 1 -1 2v1l16 16l-6 5v1zM457 529q1 0 1 0.5t1 0.5h1
q1 1 2 1t1.5 -0.5t1.5 -0.5l2 -1l2 -3q2 -1 2 -4q1 -1 1 -3t-0.5 -2t-0.5 -1l-3 -3l-1 -1h-3l-2 1h-1q-1 1 -2 1h-1q-1 1 -2 1l-1 -1h-1q-1 0 -1 1v1v1h2h1h3l1 -1q1 0 2 -1h1h2h2q0 2 2 2v3v2q0 1 -2 3q0 -1 -2 3h-2h-2l-2 -2h-1q0 1 -1 2h-1zM447 512l1 1l2 1h1l1 -1v-1
l-3 -1v-1v1h-1zM99 71h-1l-17 -5h-1h-2l-1 1v1q-1 0 -1 1v1v1l1 1l17 15l1 1l1 -1v-1v-1l-17 -15h-1q0 -1 1 -1t1 -1l18 6h1l1 -1q0 -1 1 -1l1 -1v-1v-1l-2 -1l-14 -11v-1v-1h1l22 6h1v-1h1v-1v-1h-1l-23 -6h-1l-1 1h-1v1v1q-1 0 -1 1t1 1v1l15 12v1zM101 29q-1 0 -1 1v1
l1 2l14 18h1h1v-1v-1l-14 -18v-1v-1h1l17 9h1h1q0 -1 1 -1t1 -1v-1q1 0 1 -1l-1 -1l-12 -14v-1v-1h1l21 10h1v-1q1 0 1 -1h-1l-21 -10q0 -1 -1 -1t-1 1h-1q0 1 -1 1v1l-1 1v1l1 1l12 15h-1l-16 -8q-1 -1 -2 -1l-1 1h-1v1zM149 -17l-1 -1q-1 0 -1 1h-1h-1q0 1 -1 1v1l-1 1
q0 2 1 2l9 16v1h-1l-14 -12q-1 -1 -2 -1h-1l-1 1v1h-1h-1v1v1v2l10 21h1h1q0 -1 1 -1v-1l-10 -20l-1 -1h1v-1h1l14 12h2h2v-1q1 0 2 -1v-1v-1l-9 -17v-1l19 14h1l1 -1v-1zM166 -26v-1l-1 -2h-1h-1h-1v1l2 2v1h1v-1h1zM204 -24q0 -1 -1 -1l-23 -11l11 -6q1 0 1 -1l1 -1h1v-1
l-1 -1h-1l-16 9l-1 1q0 1 1 1l24 12l-10 5h-1l-1 1v1v1h1l5 -3l4 -2l2 -1h1q4 -2 3 -2q1 -1 0 -1zM216 -31l-4 -8q2 -1 3 -1t2 -1q1 0 1.5 -0.5t1.5 -0.5h1q1 0 1 -0.5t1 -0.5h1v-1v-1h-1h-1l-10 3l-4 -8l13 -5h1v-1v-1h-1h-1h-1l-13 5v1h-1l1 1l4 11l3 10l1 1h2l5 -2
q1 0 1.5 -0.5t2.5 -0.5q0 -1 2 -1q1 0 1 -0.5t1 -0.5h1l1 -1v-1h-1h-1h-1zM242 -63q-1 0 -1 1l5 21l-7 3h-1v1v1h1l19 -5q1 0 1 -0.5t-1 -0.5v-1h-1l-8 2l-5 -22q0 -1 -1 -1h-1v1zM276 -44l1 -2l5 -22v-1v-1h-1h-1q-1 0 -1 1v1l-1 4l-14 2l-2 -4l-1 -1l-1 -1v1h-1v1v1l11 20
v1q0 1 1 1h1h1h1h1v-1h1zM277 -61l-3 15v1h-1q-1 0 -1 -1l-7 -14zM310 -47h-13v-9h4h4h1h1h1h1v-1v-1v-1h-12v-11v-1h-1h-2v1v12v1v11v1q1 0 2 1h5h4h3h1h2v-1q1 0 1 -1v-1h-1h-1zM345 -57v-3q0 -2 -1 -3l-2 -2q0 -1 -3 -2q0 -1 -3 -1h-1h-4h-3l-2 2q-2 2 -2 3q0 2 -1 3v3
q-1 2 -1 4v3q0 1 0.5 1.5t0.5 1.5l2 2q0 1 1 1t1 1q2 0 2.5 0.5t2.5 0.5h4q3 0 3 -1l3 -2l1 -2q0 -1 0.5 -1.5t0.5 -1.5q0 -3 1 -3v-4zM342 -57v2v2l-1 2q0 2 -1 3l-1 1q0 1 -1 2q-2 0 -2 1h-4v-1h-3l-2 -2q-1 0 -1 -1q-1 -1 -1 -3v-2v-3v-1q1 0 1 -3l1 -2l1 -2l1 -1
q1 0 1.5 -0.5t1.5 -0.5h3q1 1 3 1q1 1 2 1l2 2v2v3zM377 -58l-20 15l6 -19q-1 0 -1 -1h-1h-1v1l-7 23v1h1h1l21 -15l-6 18v1q1 1 2 1l1 -1l7 -23v-1h-1h-1h-1zM382 -30v1h1l17 8h1l1 -2q0 -1 -1 -1l-7 -3l9 -21h-1v-1h-1h-1l-9 20l-7 -3h-1q0 1 -1 1v1zM436 -25v-2
q0 -2 -1 -2q0 -1 -2 -3q-1 -1 -1 -1.5t-2 -1.5q-1 0 -1.5 -0.5t-2.5 -0.5q0 -1 -3 -1h-2h-2v1v1h1h1h2q1 0 1 0.5t2 0.5q0 1 1 1l1 1h2l1 1q1 1 1 2q1 0 1 2v1v1v1q-1 1 -2 1h-2h-3l-3 -2q-2 0 -4 -1h-2q-2 0 -3 1q-1 0 -3 2v2v3q0 1 2 3q0 1 1 1t2 2h1l1 1q1 0 2 1h2h2h2
v-1v-1h-2h-1q-1 0 -3 -2q-1 0 -3 -1l-1 -1q-1 0 -1 -1l-1 -1q-1 -1 -1 -2l1 -1q0 -1 1 -2h2h2q2 0 3 1l2 1h2q1 1 3 1h3l2 -1l1 -2l1 -1v-1zM451 -19h1v-1h-1l-1 -1h-1l-1 2l-1 1h1v1h1h1zM474 4q1 0 1 -1v-2q-1 0 -1 -1t-1 -1q0 -1 -2 -3l-4 -3q-2 -1 -3 -1h-3q-1 0 -3 2
l-1 1q-1 0 -1 1q-1 0 -3 2q0 -1 -2 3q-1 0 -1 2q-1 1 -1 3q-2 1 0 3q0 2 1 3l3 3v1q1 0 3 2q1 0 1.5 0.5t1.5 0.5h1q2 0 2 -1v-1v-1h-1h-1h-2l-1 -1l-2 -2h-1l-2 -2q0 -2 -1 -2v-2q0 -1 0.5 -1.5t0.5 -1.5q1 0 1 -2l2 -2l1 -1l2 -2l2 -1l2 -1h2l2 1q1 0 1.5 0.5t1.5 0.5v1
q1 1 2 1v2l1 1q0 1 1 1v1q0 1 1 1v-1zM495 31l1 -2v-3q0 -2 -1 -3l-2 -4l-3 -3q-1 0 -1.5 -0.5t-1.5 -0.5h-3q-2 0 -3 1q-1 0 -3 1q0 2 -2 2l-3 3l-2 2q0 1 -1 2v3q0 2 1 4q0 1 2 3l3 3q1 1 4 1q0 1 2 1q1 -1 3 -1q1 0 3 -2l2 -2l3 -2zM494 26q0 2 -1 2q0 2 -1 2q0 1 -0.5 1
t-0.5 1l-2 2l-1 1q-1 0 -1 0.5t-1 0.5q-1 1 -2 1t-2 1h-2q-1 0 -1.5 -0.5t-1.5 -0.5l-2 -2t-2 -3v-3v-2l1 -2l2 -1q0 -1 1 -2l1 -1q2 0 2 -2q2 0 2 -1h3q0 -1 1 0q2 0 3 1l2 2q2 2 2 3t0.5 1t0.5 1zM516 51h-1h-1q0 -1 -0.5 -1t-0.5 1l-22 4h-1h1v-1l17 -13q1 0 1 -1t-1 -1
v-1q-1 0 -1 1l-18 13q-1 0 -1 1v2l1 1v1l1 1h1q0 1 0.5 1t0.5 -1l22 -5v1l-15 16l-1 1v2h1v1v1h1q0 1 1 1h2l20 -10h1v-1h-1v-1h-1l-20 9h-1v-1l15 -16v-1v-1v-1v-1v-1zM71 436q0 1 0.5 1.5t0.5 1.5t0.5 1t0.5 1q1 0 1.5 0.5t1.5 0.5t1.5 0.5t2.5 0.5h38q4 0 10 -2t9 -4
q4 -1 7 -6q4 -4 5 -9q0 -1 0.5 -2t0.5 -3v-6v-6l-2 -4q-1 -2 -3 -4l5 -5l3 -6q1 -3 1 -9q0 -7 -1 -10q-2 -5 -5 -10q-3 -4 -7 -7q-5 -3 -10 -5q-3 -1 -5.5 -1.5t-5.5 -0.5h-32q-3 0 -7 2q-2 1 -4 3q-3 3 -3 5q-1 2 -1 5v69v2q-1 1 -1 2v3zM85 430v-1h1v-1v-68v-2v-1v-1h2h32
q4 0 10 2q5 2 8 7q2 2 4 8v10q-2 4 -5 8t-9 6q6 4 7 6q2 2 2 4t1 4q0 5 -1 7t-1.5 3.5t-2.5 3.5q-3 3 -6 4q-4 2 -8 2h-32h-1l-1 -1v0zM120 427q3 0 7 -2q3 -3 4 -5q2 -4 2 -7q0 -5 -1 -7t-2 -2.5t-3 -2.5q-4 -2 -7 -2h-30v28h30zM120 395q6 0 9 -3q4 -3 6 -6q2 -6 2 -9
q0 -2 -2 -8q-2 -5 -6 -6q-5 -3 -10 -3h-29v35h30zM102 417v-11h15h2l2 2l1 1v3q0 3 -1 4t-4 1h-15zM102 384v-13h16h3q1 0 2 1t1 2q1 1 1 3v3l-2 2q-1 1 -2 1q-1 1 -3 1h-16zM233 352q0 -4 -2 -6q-2 -3 -6 -3t-6 2q-2 1 -5 6q-4 -4 -7 -4q-3 -1 -7 -3h-6q-1 -1 -4 -1
q-8 0 -14 3q-7 4 -10 9q-4 4 -7 12q-2 8 -2 15v23q0 4 1 6q1 1 1.5 2t1.5 2q1 3 5 3q4 2 5 2q2 0 6 -2q3 0 5 -3q1 -1 1.5 -2t1.5 -2q1 -2 1 -6v-23q0 -2 0.5 -2.5t0.5 -1.5t2 -3l2 -2q1 0 2 -0.5t2 -0.5t1.5 0.5t1.5 0.5q1 1 1.5 1t1.5 1t1 1.5t1 1.5q0 1 0.5 1.5t0.5 2.5
v23q0 4 1 6q1 1 1.5 2t1.5 2q1 3 5 3q2 2 5 2q2 0 6 -2q3 0 5 -3q1 -1 1.5 -2t1.5 -2q1 -2 1 -6v-53zM221 407l-1 1q0 1 -2 1q-1 0 -1 -1l-1 -1v-25q0 -3 -2 -9q-1 -3 -5 -7q-2 -2 -7 -6q-2 -1 -4 -1.5t-5 -0.5q-4 0 -8 2q-2 1 -6 5q-2 2 -4 8q-1 2 -1 9v25q0 1 -1 1l-1 1
q-2 0 -2 -1l-1 -1v-25q0 -5 2 -11q1 -3 5 -9q4 -4 7 -6q6 -2 10 -2q3 0 5 0.5t4 1.5t3.5 1.5t3.5 1.5q1 2 2 2.5t2 2.5q2 2 2 2.5t1 2.5v-5v-3q0 -1 0.5 -1.5t0.5 -1.5q1 0 1 -1h1l2 1v49zM241 429q0 2 0.5 3t0.5 3q1 2 4 5q2 2 4 3q2 0 3 0.5t3 0.5t3 -0.5t3 -0.5
q2 -1 2.5 -1.5t2.5 -1.5q1 -2 1.5 -2.5t1.5 -2.5q0 -2 0.5 -3t0.5 -3v-12q6 3 12 3q8 0 14 -3q7 -3 11 -9q4 -4 7 -12q2 -4 2 -14q0 -11 -2 -15q-3 -8 -7 -12q-4 -6 -11 -9q-6 -3 -14 -3q-7 0 -13 3q-6 2 -9 6q-4 -5 -5 -6q-3 -3 -7 -3q-3 0 -6 3q-2 2 -2 6v77zM254 358
q0 -1 1 -1h1l1 1q0 1 0.5 1t0.5 1v4v3q3 -6 9 -9q4 -4 12 -4q4 0 10 2q6 4 8 6l6 9q2 6 2 11q0 4 -2 10q-3 6 -6 9q-3 4 -8 6q-3 2 -10 2q-8 0 -12 -3q-6 -5 -9 -10v31v1q-1 1 -2 1t-2 -1v-1v-69zM279 358q-3 0 -7 2q-5 1 -7 4q-1 2 -2 3t-2 3t-3 8v8q1 2 1.5 3.5t1.5 3.5
t2 3.5t2 3.5q2 1 3.5 2t3.5 2t7 1q6 0 8 -2q3 -1 7 -5t5 -7q2 -6 2 -9q0 -5 -2 -9q-2 -5 -5 -8q-4 -4 -7 -5q-4 -2 -8 -2zM271 382q0 -3 1 -4q0 -1 0.5 -1.5t0.5 -1.5q1 -1 1.5 -1t1.5 -1q1 0 1.5 -0.5t1.5 -0.5q2 0 2.5 0.5t1.5 0.5l2 2q2 2 2 3q1 1 1 4q0 2 -1 3q0 1 -2 3
l-2 2q-1 0 -1.5 0.5t-2.5 0.5q-1 0 -1.5 -0.5t-1.5 -0.5q-1 -1 -1.5 -1t-1.5 -1q0 -1 -0.5 -1.5t-0.5 -1.5q-1 -1 -1 -3zM322 429q0 2 2 6q0 2 3 5q1 1 2 1.5t2 1.5q2 0 3 0.5t3 0.5t3 -0.5t3 -0.5q2 -1 2.5 -1.5t2.5 -1.5q1 -2 1.5 -2.5t1.5 -2.5t1 -6v-12q6 3 12 3
q8 0 14 -3q7 -3 11 -9q6 -6 7 -12q3 -6 3 -14q0 -9 -3 -15q-1 -6 -7 -12q-4 -6 -11 -9q-6 -3 -14 -3q-7 0 -13 3q-5 1 -9 6q-1 -4 -5 -6q-2 -3 -6 -3t-7 3q-2 2 -2 6v77zM335 358q0 -1 1 -1h1l1 1q1 1 1 2t0.5 1.5t0.5 2.5v3q3 -7 8 -9q5 -4 12 -4q4 0 10 2q6 4 8 6q4 4 6 9
q2 6 2 11q0 4 -2 10t-6 9q-3 4 -8 6q-3 2 -10 2q-6 0 -12 -3q-5 -4 -8 -10v31l-1 1q-1 1 -2 1t-1 -1q-1 0 -1 -1v-69zM360 358q-3 0 -7 2q-5 3 -6 4q-4 4 -5 6q-2 4 -2 8v8q0 3 2 7q1 3 5 7q2 2 6 4q2 1 7 1q6 0 8 -2q3 -1 7 -5t5 -7q2 -6 2 -9q0 -5 -2 -9q-2 -5 -5 -8
q-4 -4 -7 -5q-4 -2 -8 -2zM352 382q0 -3 1 -4q0 -1 2 -3l2 -2q1 0 1.5 -0.5t2.5 -0.5q1 0 1.5 0.5t1.5 0.5q1 1 1.5 1t1.5 1q0 1 0.5 1.5t0.5 1.5q1 1 1 4q0 2 -1 3q0 1 -0.5 1.5t-0.5 1.5q-1 1 -1.5 1t-1.5 1q-1 0 -1.5 0.5t-1.5 0.5q-2 0 -2.5 -0.5t-1.5 -0.5l-2 -2
q-2 -2 -2 -3q-1 -1 -1 -3zM402 429q0 2 0.5 3t0.5 3q1 1 1.5 2t1.5 2q3 3 5 3q4 2 6 2t6 -2q2 0 4 -3q2 -1 2.5 -2t1.5 -2q0 -2 0.5 -3t0.5 -3v-71q0 -2 -0.5 -3t-0.5 -3q-1 -1 -1.5 -2t-2.5 -2q-2 -3 -4 -3q-4 -2 -6 -2t-6 2q-2 0 -5 3q-1 1 -1.5 2t-1.5 2q0 2 -0.5 3
t-0.5 3v71zM415 359v-1q1 -1 2 -1t1 1l1 1v67q0 1 -1 2h-1h-2v-2v-67zM473 343q-8 0 -14 3q-7 3 -13 9q-5 5 -8 12q-3 6 -3 15q0 8 3 14q3 7 8 12q6 6 13 9q6 3 14 3q9 0 15 -3q9 -3 12 -8q4 -3 8 -11q3 -6 3 -14v-5l-3 -3l-4 -2h-5h-33v-2l2 -2q2 -2 3 -2q1 -1 3 -1t3 1
q1 0 3 1q1 0 1.5 0.5t1.5 0.5h5q1 0 2 -0.5t2 -0.5l4 -2q2 -2 3 -4q0 -1 0.5 -2t0.5 -3q0 -4 -3 -7q-1 -2 -6 -4q-2 -2 -4 -2t-5 -1q-2 0 -4.5 -0.5t-4.5 -0.5zM473 354q2 0 3.5 0.5t2.5 0.5q3 0 5 1l2 1l2 1v1v1l-1 1h-2q-1 0 -1.5 -0.5t-1.5 -0.5q-2 0 -3 -1h-2h-4
q-5 0 -8 1t-7 5t-5 7q-2 6 -2 8h46q2 0 3 1h1v1v1q0 4 -2 10t-6 9q-3 4 -8 6q-6 2 -11 2q-3 0 -11 -2q-3 -1 -9 -5l-6 -9q-2 -6 -2 -12q0 -4 2 -10q2 -3 3 -5t3 -4q3 -5 9 -6q4 -3 10 -3zM474 406q3 0 9 -2q2 -1 3.5 -1.5t3.5 -2.5q1 -2 2 -3.5t2 -3.5q2 -6 2 -8h-45
q0 2 2 8q4 6 5 7q4 3 8 4q4 2 8 2zM473 396h-2q-1 -1 -3 -1l-2 -2q0 -1 -0.5 -1.5t-0.5 -1.5h17q0 1 -0.5 1.5t-0.5 1.5q-1 1 -1.5 1t-1.5 1q-1 0 -2 1h-3zM96 318q0 4 1 6t1.5 2.5t1.5 2.5q2 1 2.5 1.5t2.5 1.5t6 1t6 -1q1 -1 2 -1.5t2 -1.5q3 -3 4 -5q0 -2 0.5 -3t0.5 -3
v-12q6 3 11 3q7 0 15 -3q6 -3 11 -8q3 -4 7 -12q2 -10 2 -15t-2 -15q-3 -8 -7 -12q-3 -4 -11 -8q-8 -3 -15 -3q-8 0 -12 2q-5 1 -10 6q-2 -4 -4 -6t-7 -2t-6 2q-2 2 -2 6v77zM109 247q0 -1 1 -1h1l1 1l1 2v4v4q4 -7 9 -10q6 -4 12 -4q5 0 10 3q4 1 8 5l6 9q1 3 1.5 5.5
t0.5 5.5t-0.5 5.5t-1.5 5.5q-4 6 -6 8q-3 4 -8 6q-5 3 -10 3q-6 0 -12 -4q-6 -5 -9 -10v31q0 1 -1 2h-1h-2v-2v-69zM134 248q-5 0 -8 1q-4 2 -6 4t-4 6q-2 2 -2 4t-1 4v8q1 2 1 4t2 4q2 4 4 6t6 4q3 1 8 1t8 -1q5 -4 7 -6q4 -4 5 -7t1 -9t-1 -9l-2 -4t-3 -4q-1 -1 -7 -5
q-3 -1 -8 -1zM126 271v-4q1 -1 1 -1.5t1 -1.5t1.5 -1t1.5 -1h3h4l2 2q2 2 2 3t0.5 2t0.5 2t-0.5 1.5t-0.5 1.5t-2 3q0 2 -2 2q-1 1 -4 1q-2 0 -3 -1q-1 0 -3 -2q-1 -1 -1 -1.5t-1 -1.5v-3zM173 271q0 7 3 15q4 8 8 12q5 5 12 8t15 3t14 -3q5 -2 13 -8q6 -8 8 -12q3 -8 3 -15
q0 -8 -3 -15t-8 -12t-13 -8q-6 -3 -14 -3t-15 3q-9 3 -12 8q-5 3 -8 12q-3 7 -3 15zM183 271q0 -5 2 -11l6 -9l9 -6q6 -2 11 -2q4 0 10 2q6 3 9 6q4 4 6 9q2 6 2 11q0 4 -2 10t-6 9q-3 4 -9 6q-3 2 -10 2q-8 0 -11 -2q-5 -2 -9 -6q-3 -3 -6 -9q-2 -6 -2 -10zM188 271
q0 3 2 9q1 3 5 7t7 5q6 2 9 2t9 -2q4 -2 7 -5q1 -1 5 -7q1 -3 1 -9t-1 -9q-2 -2 -2.5 -4t-2.5 -4t-3.5 -2.5t-3.5 -2.5q-6 -2 -9 -2t-9 2q-6 4 -7 5q-4 3 -5 8q-2 6 -2 9zM202 271q0 -3 1 -4q0 -1 2 -3l2 -2h4h3q1 1 1.5 1t1.5 1q0 1 2 3v4v3q-2 2 -2 3q-2 2 -3 2q-1 1 -3 1
q-3 0 -4 -1q-2 0 -2 -2q-2 -2 -2 -3q-1 -1 -1 -3zM325 241q0 -5 -2 -6q-1 -2 -6 -2t-7 2q-1 2 -2 3t-2 3q-5 -5 -10 -6q-3 -2 -12 -2q-8 0 -14 3q-8 4 -11 8q-6 6 -7 12q-3 7 -3 15q0 7 3 15q1 4 7 12q5 5 11 8t14 3q6 0 12 -3v12q0 4 1 6t1.5 2.5t1.5 2.5q1 1 5 3q2 1 6 1
t5 -1q4 -2 5 -3q1 -2 2 -2.5t1 -2.5q1 -2 1 -6v-77zM313 316q0 1 -1 2h-1h-2q0 -1 -0.5 -1t-0.5 -1v-31q-2 4 -8 10q-8 4 -12 4q-6 0 -10 -3q-5 -2 -8 -6q-4 -3 -6 -8q-2 -4 -2 -11t2 -11q1 -5 6 -9q3 -4 8 -5q4 -3 10 -3q4 0 12 4q4 3 8 10v-4q0 -3 1 -4v-2q1 0 1 -0.5
t1 -0.5h1q1 0 1 1v69zM288 248q-6 0 -9 1q-2 2 -3.5 2.5t-3.5 2.5l-2 4l-2 4q-2 6 -2 9t2 9q1 2 2 3.5t2 3.5q2 2 3.5 3t3.5 3q3 1 9 1q5 0 7 -1q4 -2 6 -4q4 -4 5 -6q2 -6 2 -8v-8q0 -2 -2 -8q-1 -2 -5 -6q-2 -2 -6 -4q-2 -1 -7 -1zM296 271q0 2 -1 3q0 1 -2 3q0 2 -2 2
q-1 1 -4 1q-2 0 -3 -1q-1 0 -3 -2q-1 -1 -1 -1.5t-1 -1.5v-3v-4q1 -1 1 -1.5t1 -1.5t1.5 -1t1.5 -1h3h4l2 2q2 2 2 3q1 1 1 4zM407 241q0 -4 -2 -6t-7 -2t-6 2q-4 4 -5 6q-3 -4 -9 -6q-4 -2 -13 -2q-8 0 -14 3q-8 4 -11 8q-4 4 -7 12q-3 7 -3 15q0 7 3 15q4 8 7 12q5 5 11 8
t14 3q6 0 12 -3v12q0 4 1 6t1.5 2.5t1.5 2.5q2 1 2.5 1.5t2.5 1.5t6 1t6 -1q1 -1 2 -1.5t2 -1.5q3 -3 3 -5q2 -4 2 -6v-77zM394 316q0 1 -1 2h-1h-2v-2v-31q-2 3 -4 5.5t-5 4.5q-8 4 -12 4q-6 0 -10 -3q-5 -2 -8 -6q-4 -3 -6 -8q-1 -3 -1.5 -5.5t-0.5 -5.5t0.5 -5.5
t1.5 -5.5q1 -5 6 -9q3 -4 8 -5q4 -3 10 -3q4 0 12 4q3 2 5 4.5t4 5.5v-4v-4q0 -1 1 -2q0 -1 1 -1h1q1 0 1 1v69zM369 248q-6 0 -8 1q-2 2 -3.5 2.5t-3.5 2.5t-3 4l-2 4q-2 6 -2 9t2 9q1 3 5 7q2 2 7 6q2 1 8 1q5 0 7 -1q5 -2 6 -4q4 -4 5 -6t1.5 -4t1.5 -4v-8q-1 -2 -1.5 -4
t-1.5 -4t-5 -6q-1 -2 -6 -4q-2 -1 -7 -1zM377 271q0 2 -1 3q0 1 -0.5 1.5t-0.5 1.5q-2 2 -3 2q-1 1 -4 1q-2 0 -3 -1q-1 0 -3 -2q0 -1 -0.5 -1.5t-0.5 -1.5q-1 -1 -1 -3q0 -3 1 -4q0 -1 0.5 -1.5t0.5 -1.5q1 -1 1.5 -1t1.5 -1h3h4q1 1 1.5 1t1.5 1q0 1 0.5 1.5t0.5 1.5
q1 1 1 4zM435 244q-1 1 -1 2q-1 1 -3 5q-1 2 -1.5 3.5t-2.5 3.5q-2 6 -4 8q-2 5 -5 10.5t-6 11.5q0 1 -0.5 1.5t-0.5 1.5v4q0 4 1 5q2 4 3 5q2 1 2.5 1.5t2.5 1.5t6 1h4q2 0 4 -2q1 0 3 -2t2 -4l11 -32q2 5 4 13q1 6 3 9q2 6 2 7q3 3 2 3q1 4 5 6q3 3 8 3q1 0 7 -2l2 -2
q1 0 3 -2q1 -1 1 -2t1 -2q1 -2 1 -5q0 -2 -1 -3q0 -3 -1 -4l-30 -63q-1 -4 -5 -6q-2 -2 -6 -4q-2 -2 -4 -2t-4 -1q-3 -1 -8 -1q-2 0 -3.5 0.5t-3.5 0.5q-2 1 -2.5 1.5t-2.5 1.5q-1 2 -1.5 2.5t-1.5 2.5t-1 6q0 3 2 7q1 1 5 3q1 1 5 1h5zM444 234q0 -2 -2 -4q-1 -1 -1.5 -1
t-1.5 -1q-1 0 -1.5 -0.5t-2.5 -0.5h-3h-2h-3q0 -1 -0.5 -1t-0.5 -1t0.5 -1t0.5 -1h2l2 -1q5 0 9 2t5 3q3 3 4 5q0 2 2 6l25 55v1q0 1 -1 2h-1h-2l-1 -1l-6 -15q-2 -3 -3.5 -6.5t-3.5 -8.5t-4 -9.5t-4 -9.5l-21 48l-2 2h-1h-2l-1 -1l1 -1v-2l23 -52zM251 171q0 -1 -1 -1
q0 -1 -1 -1l-1 1l-1 1l-37 43v-43q0 -1 -1 -1q0 -1 -1 -1l-1 1v1v47v1h-1l1 1h1q1 0 1 -1q1 0 1 -1l38 -43v43l-1 1l1 1h1h1v-1h1v-1v-47zM272 169q-3 0 -7 2t-6 4t-4 6q-2 6 -2 8t2 8q2 4 4 6t6 4q3 1 8 1t8 -1q2 -1 5 -4q2 -3 4 -7t2 -7v-1l-1 -1h-2h-33q1 -2 1 -3t1 -3
q1 -1 1.5 -2t2.5 -2q1 -3 4 -3q4 -2 6 -2t3 0.5t3 0.5q4 2 5 4h1h1q1 0 1 -1v-1q0 -1 -1 -2q-1 0 -1.5 -0.5t-1.5 -0.5q-4 -2 -5 -2t-2 -0.5t-3 -0.5zM273 205q-4 0 -6 -1q-4 -2 -5 -3q-2 -1 -4 -5q-1 -2 -1 -6h32q-1 2 -1 3t-1 3q-2 4 -3 5q-2 1 -2.5 1.5t-2.5 1.5t-6 1z
M297 189q0 -3 2 -7q0 -2 3 -5q1 -1 5 -3t6 -2q1 0 2 0.5t2 0.5q2 0 4 2q1 1 2 1t2 1q2 2 2 4q2 2 2 4q1 1 1 4v-9l-2 -4q-2 -2 -4 -3q-2 -2 -5 -2q-4 -2 -6 -2t-8 2q-4 2 -5 4q-2 2 -4 6q-2 6 -2 8v17v1q1 0 1 1h1h1v-2v-17zM333 170q0 -1 -1 -1l-1 1q-1 1 -1 2v2v8v1v24v1
h1h2v-1v-37zM355 169q-2 0 -8 2q-4 2 -6 4t-4 6q-2 6 -2 8t2 8q1 2 2 3t2 3q2 2 7 4q2 1 7 1q6 0 8 -1t3 -2t3 -2q1 -2 2 -3.5t2 -3.5t1 -7v-1q0 -1 -1 -1h-1h-33q0 -4 1 -6q1 -1 1.5 -2t2.5 -2q1 -3 5 -3q4 -2 6 -2t3 0.5t3 0.5q2 1 5 4h1q1 0 1 -1v-1q0 -1 -1 -2
q-1 0 -1.5 -0.5t-1.5 -0.5q-2 -2 -4 -2t-3 -0.5t-2 -0.5zM355 205q-4 0 -6 -1t-2.5 -1.5t-2.5 -1.5q-1 -1 -3 -5t-2 -6h32q0 2 -2 6q0 3 -3 5q-1 1 -5 3q-1 1 -6 1zM71 136q0 1 2 3t4 2v3q0 2 2 4t4 2q1 -1 2 -1l1 -1q1 -1 1 -2q1 0 1 -2v-3h1q1 0 3 -2t2 -3q0 -2 -2 -4
q-1 -1 -3 -1h-1v-12q0 -2 -2 -4q-1 -1 -3 -1q-3 0 -4 1q-2 2 -2 4v12q-3 0 -4 1q-2 2 -2 4zM106 119q0 -2 -1 -2q0 -1 -1 -2t-2 -1h-2h-2l-1 1q-1 1 -1 2q-1 0 -1 2v25q0 2 1 2q0 1 1 2l1 1l2 1l2 -1l2 -1q1 -1 1 -2q1 0 1 -2v-5v1h2q0 1 1 1h1q4 0 5 -1q2 -1 4 -3
q1 -1 1.5 -2t1.5 -2q0 -2 0.5 -3t0.5 -3v-8l-1 -2q0 -1 -0.5 -1t-0.5 -1q-1 -1 -2 -1h-2h-2l-1 1l-2 2v2v8q0 2 -1 2q0 1 -2 1t-2 -1q-1 0 -1 -2v-8zM152 128q0 -1 -1 -2v-1q-1 0 -1 -0.5t-1 -0.5h-2h-1h-1h-4h-5q0 -1 1 -1h1h1h1h1h2q2 0 3 -1q2 -2 2 -3l-1 -2l-2 -2
q-1 -1 -3 -1h-4q-3 0 -5 1q-3 0 -4 3q-3 1 -3 4q-1 2 -1 5q0 4 1 6q0 2 3 4q2 2 4 3t5 1q4 0 5 -1q4 -2 5 -3q2 -2 3 -4q0 -2 0.5 -2.5t0.5 -2.5zM138 132h-1l-1 -1h4v1h-2zM166 137q0 2 1 3q0 1 2 1q1 0 2 -1l2 -2q2 2 3 2q2 1 5 1t5 -1q1 -1 2 -1.5t2 -1.5q2 -2 2 -4
q1 -2 1 -6v-8v-2q-1 -1 -1 -2q-1 0 -1 -0.5t-1 -0.5h-2h-2q-1 0 -1 0.5t-1 0.5q0 1 -0.5 1t-0.5 1v2l-1 8v2q-1 1 -3 1q-1 0 -2 -1t-1 -2v-8v-2q0 -1 -0.5 -1t-0.5 -1q-1 0 -1 -0.5t-1 -0.5h-2h-2q-1 0 -1 0.5t-1 0.5q0 1 -0.5 1t-0.5 1v2v8v10zM225 128v-2l-1 -1
q-1 0 -1 -0.5t-1 -0.5h-1h-2h-1h-4h-5l1 -1h1h1h2h1h1q2 0 3 -1q2 -2 2 -3q0 -2 -1 -2l-2 -2q-1 -1 -3 -1h-4q-3 0 -5 1q-3 0 -4 3q-3 1 -3 4q-1 2 -1 5q0 4 1 6q0 2 3 4q2 2 4 3t5 1q4 0 6 -1q1 -1 2 -1.5t2 -1.5q2 -2 3 -4t1 -5zM211 132h-1l-1 -1h5q-1 0 -1 1h-2z
M245 138l2 2q1 1 2 1t1.5 -0.5t1.5 -0.5l2 -2l4 -9l3 9q0 2 2 2q1 1 2 1q2 0 3 -1q2 0 2 -2q1 -1 1 -2q0 -2 -1 -3l-8 -16q0 -1 -2 -3h-2h-3q-2 2 -2 3l-4 9l-3 -9q-1 -1 -1 -1.5t-1 -1.5h-3h-2q-1 1 -1.5 1t-1.5 2l-7 16q-1 1 -1 3q0 1 1 2q0 2 2 2q1 1 2 1q2 0 3 -1l2 -2
l3 -9zM289 134v2v2q2 2 3 2q0 1 2 1t2 -1q2 0 2 -2l5 -9l4 9q0 2 2 2q0 1 2 1t3 -1l2 -2q1 -1 1 -2l-1 -2l-9 -17q0 -1 -2 -3h-2h-3q-2 2 -2 3zM343 128v-2l-1 -1q-1 0 -1 -0.5t-1 -0.5h-2h-1h-1h-4h-5q0 -1 1 -1h1h1h1h2h1q2 0 3 -1q2 -2 2 -3l-1 -2l-2 -2q-1 -1 -3 -1h-4
q-3 0 -5 1q-3 0 -4 3q-3 1 -3 4q-1 2 -1 5q0 4 1 6q0 2 3 4q2 2 4 3t5 1q4 0 6 -1q1 -1 2 -1.5t2 -1.5q2 -2 3 -4t1 -5zM329 132h-1l-1 -1h4v1h-2zM344 137q0 2 1 3q0 1 2 1t2 -1q2 0 2 -2q2 2 3 2q1 1 4 1h2l2 -1l2 -2q1 -1 1 -3v-2l-1 -1q-1 -1 -2 -1q0 -1 -2 -1h-1h-2
q-2 0 -2 -1v-2l-1 -8v-2q0 -1 -0.5 -1t-0.5 -1q-1 0 -1 -0.5t-1 -0.5h-2h-2l-1 1l-2 2v2v18zM376 114h-4q-2 0 -4 2q-1 0 -3 2q-1 1 -1 3q0 3 1 3q2 2 3 2q2 0 3 -1t2 -1l2 -1q1 0 1 -0.5t1 -0.5l1 1q-1 0 -1 1h-2q-1 1 -1.5 1t-1.5 1h-2q-1 0 -1 1q-2 2 -3 2q0 1 -0.5 1.5
t-0.5 2.5q1 1 1 2t2 3q1 1 1.5 1t1.5 1t5 1q3 0 4 -1q3 0 4 -1q1 0 3 -2q0 -1 0.5 -1.5t0.5 -1.5q-1 -1 -1 -2l-1 -1q-1 -1 -2 -1h-1h-2q-1 0 -1 0.5t-1 0.5t-1 1h-1h-1q0 -1 1 -1t1 -1h2l2 -1q1 0 1 -0.5t1 -0.5t1 -0.5t1 -0.5q1 -1 1 -1.5t1 -1.5v-3q0 -2 -1 -3
q0 -1 -2 -3q-2 0 -2.5 -0.5t-1.5 -0.5h-5zM389 148q0 2 2 4t4 2q1 0 3 -2t2 -4q0 -1 -2 -3t-3 -2q-2 0 -4 2t-2 3zM389 136q0 1 2 3t4 2q1 0 2 -1q1 0 1 -1q1 0 1 -0.5t1 -0.5v-2v-17q0 -2 -2 -4q-1 -1 -3 -1q-3 0 -4 1q-2 2 -2 4v17zM401 127q0 2 0.5 3t0.5 3q1 1 1.5 2
t1.5 2t5 3q1 1 5 1q3 0 5 -1t4 -3q3 -2 3 -4q1 -2 1 -6q0 -3 -1 -5q0 -3 -3 -4q-2 -3 -4 -3q-2 -1 -5 -1q-4 0 -5 1q-4 0 -5 3q-2 2 -3 4q0 2 -0.5 2.5t-0.5 2.5zM412 127q0 -1 1 -2q0 -1 2 -1q1 0 2 1t1 2q0 2 -1 2q-1 1 -2 1q-2 0 -2 -1q-1 0 -1 -2zM429 137q0 2 1 3t2 1
q2 0 3 -1t1 -2q2 2 4 2q1 1 4 1q4 0 5 -1q2 -1 4 -3q1 -1 1.5 -2t1.5 -2q0 -2 0.5 -3t0.5 -3v-8l-1 -2q0 -1 -0.5 -1t-0.5 -1q-1 -1 -2 -1h-2h-2l-1 1l-2 2v2v8q0 2 -1 2q0 1 -2 1t-2 -1q-1 0 -1 -2v-8q0 -2 -1 -2q0 -1 -1 -2t-2 -1h-2h-2l-1 1q-1 1 -1 2q-1 0 -1 2v8v10z
M471 127q0 4 1 6q0 2 3 4q2 2 4 3t5 1q4 0 6 -1q1 -1 2 -1.5t2 -1.5t1.5 -2t1.5 -2q1 -2 1 -6q0 -3 -1 -5t-3 -4q-2 -3 -4 -3q-2 -1 -6 -1q-3 0 -5 1q-3 0 -4 3q-3 1 -3 4q-1 2 -1 5zM481 127q0 -1 0.5 -1t0.5 -1q1 -1 2 -1q2 0 2 1q1 1 1 2q0 2 -1 2q0 1 -2 1q-1 0 -2 -1
t-1 -2zM497 134q0 3 2 3q2 2 3 2l2 4q2 3 3 4t1.5 1t1.5 1q2 0 2.5 0.5t2.5 0.5q1 0 3 -2t2 -3q0 -2 -2 -4q-1 -1 -3 -1q-1 0 -2 -1h1q2 0 3 -1q2 -2 2 -4t-2 -4q-1 -1 -3 -1h-1v-10q0 -2 -2 -4q-1 -1 -4 -1h-2l-1 1l-2 2v2v10q-3 0 -4 1q0 1 -0.5 1.5t-0.5 2.5zM137 97
q0 1 1 2q0 1 1 2q1 0 1 1h2h3l1 -1q1 -1 1 -2q1 -1 1 -2v-5v1h2h1h1q4 0 5 -1q2 0 4 -3q2 -2 3 -4q0 -2 0.5 -2.5t0.5 -2.5t-0.5 -3t-0.5 -2q-2 -4 -3 -5q-2 -2 -4 -3q-1 0 -2 -0.5t-3 -0.5q-3 0 -4 1q-2 0 -4 2q0 -1 -0.5 -1t-0.5 -1q-1 -1 -3 -1q-1 0 -1 0.5t-1 0.5
q-1 1 -1 3v27zM154 80q0 1 -1 2q0 1 -2 1t-2 -1q-1 -1 -1 -2q0 -2 1 -2q0 -1 2 -1t2 1q1 0 1 2zM196 70q0 -2 -1 -3t-2 -1q-2 0 -2 1l-2 2q-2 -2 -4 -2q-1 -1 -4 -1q-2 0 -2.5 0.5t-2.5 0.5q-1 1 -2 1.5t-2 1.5q-2 2 -2 5q-1 1 -1 5v8v2q0 1 0.5 1t0.5 1q1 0 1 0.5t1 0.5h2
h2q1 0 1 -0.5t1 -0.5q0 -1 1 -2v-2v-8l1 -2q1 -1 2 -1q2 0 2 1q1 0 1 2v8l1 2q0 1 0.5 1t0.5 1q1 0 1 0.5t1 0.5h2h2l1 -1l2 -2v-2v-8v-10zM201 97v2l2 2q1 0 1 1h2h2l2 -1q0 -1 0.5 -1t0.5 -1t0.5 -1t0.5 -1v-5v1h1h2h1q3 0 5 -1q2 0 4 -3q2 -2 2 -4q1 -2 1 -5q0 -4 -1 -5
q0 -3 -2 -5t-4 -3q-2 0 -2.5 -0.5t-2.5 -0.5q-3 0 -4 1q-2 0 -4 2l-2 -2q0 -1 -2 -1l-2 1q-1 1 -1 3v27zM218 80q0 1 -0.5 1t-0.5 1q-1 1 -2 1q-2 0 -2 -1q-1 -1 -1 -2q0 -2 1 -2q0 -1 2 -1q1 0 2 1t1 2zM232 97q0 1 1 2q0 1 1 2q1 0 2 1h2h2l1 -1q1 -1 1 -2q1 -1 1 -2v-5
l1 1h1h1h1q4 0 5 -1q2 0 4 -3q2 -2 3 -4q0 -2 0.5 -2.5t0.5 -2.5t-0.5 -3t-0.5 -2q-2 -4 -3 -5q-2 -2 -4 -3q-1 0 -2 -0.5t-3 -0.5q-3 0 -4 1q-2 0 -4 2q0 -1 -0.5 -1t-0.5 -1q-1 -1 -3 -1q-1 0 -1 0.5t-1 0.5q0 1 -0.5 1.5t-0.5 1.5v27zM249 80q0 1 -1 2q0 1 -2 1t-2 -1
q-1 -1 -1 -2q0 -2 1 -2q0 -1 2 -1t2 1q1 0 1 2zM264 97q0 3 1 4t4 1h2q1 -1 2 -1q0 -1 0.5 -1t0.5 -1v-2v-26q0 -2 -1 -3q-2 -2 -4 -2t-4 2q-1 1 -1 3v26zM306 80v-1l-1 -1q-1 -1 -2 -1l-1 -1h-2h-1h-4q-1 1 -5 1l1 -1l1 -1h2q0 1 1 1h1h1q3 0 3 -1q2 -2 2 -3q0 -2 -1 -3
t-2 -1q-1 -1 -3 -1q-1 -1 -4 -1q-1 0 -2 0.5t-3 0.5q-2 1 -4 3q-1 1 -3 5q-1 1 -1 5q0 3 1 5t3 4q1 3 4 3q2 1 5 1h6q1 -1 2 -1.5t2 -1.5t1.5 -2t1.5 -2q1 -2 1 -6zM292 85q-1 0 -1 -1q-1 0 -1 -1h5l-1 1q-1 1 -2 1zM310 97v2q0 1 0.5 1t0.5 1q1 0 2 1h2h2q1 -1 2 -1
q0 -1 1 -2v-2v-5l1 1h1h1h1q4 0 6 -1q1 0 4 -3l2 -4q1 -2 1 -5q0 -4 -1 -5q-1 -2 -1 -3t-1 -2q-2 -1 -4 -3q-2 0 -3 -0.5t-3 -0.5t-4 1l-4 2q0 -1 -1 -2t-2 -1t-1.5 0.5t-1.5 0.5v3v27zM326 80v2q-1 1 -3 1q-1 0 -2 -1q0 -1 -0.5 -1t-0.5 -1l1 -2l2 -1q2 0 3 1v2zM341 80
q0 3 1 5t3 4q1 3 4 3q2 1 6 1q3 0 5 -1q2 0 4 -3q2 -2 3 -4t1 -5q0 -4 -1 -5q-2 -4 -3 -5t-2 -1.5t-2 -1.5q-2 0 -3 -0.5t-2 -0.5q-2 0 -3 0.5t-3 0.5q-1 1 -2 1.5t-2 1.5t-3 5q-1 1 -1 5zM351 80l1 -2q1 -1 3 -1q1 0 2 1t1 2t-0.5 1t-0.5 1l-2 1q-2 0 -3 -1q0 -1 -0.5 -1
t-0.5 -1zM400 70q0 -1 -0.5 -1.5t-0.5 -1.5q-1 0 -1 -0.5t-1 -0.5q-2 0 -3 1q0 1 -0.5 1t-0.5 1q-2 -2 -4 -2q-1 -1 -4 -1q-2 0 -3 0.5t-2 0.5q-2 1 -4 3q-1 1 -3 5q0 1 -0.5 2t-0.5 3t0.5 2.5t0.5 2.5q1 2 3 4q1 3 4 3q1 1 5 1h1h1h1l1 -1v5q0 1 1 2q0 1 1 2q1 0 1 1h2h2
l2 -1q1 -1 1 -2t0.5 -1t0.5 -1v-27zM383 80q0 -2 1 -2q0 -1 2 -1t2 1q1 0 1 2q0 1 -1 2q0 1 -2 1t-2 -1q-1 -1 -1 -2zM432 70v-3q-1 0 -1.5 -0.5t-1.5 -0.5t-2 1t-1 2l-4 -2q-2 -1 -4 -1t-3 0.5t-3 0.5q-2 2 -4 3q-1 1 -1 2t-1 3q-1 1 -1 5q0 3 1 5l2 4q3 3 4 3q2 1 6 1h1h1
h1l1 -1v5v2q1 1 1 2q1 0 2 1h2h2q1 -1 2 -1q0 -1 0.5 -1t0.5 -1v-2v-27zM416 80v-2q1 -1 3 -1q1 0 2 1t1 2t-0.5 1t-0.5 1l-2 1q-2 0 -3 -1v-2zM465 66q0 -3 -1 -4q0 -1 -0.5 -1.5t-0.5 -1.5q-2 -2 -3 -2q-1 -1 -3 -1q-1 -1 -3 -1h-2h-3l-2 1q-1 0 -3 2v3v2l1 1q1 1 2 1
q1 1 2 1t1 -1h3q1 0 1 1l1 1q-2 -1 -5 -1q-1 0 -2 0.5t-3 0.5q-1 1 -2 1.5t-2 1.5q-2 2 -2 5q-1 1 -1 5v8v2q1 1 1 2l2 1h2h2q1 0 1 -0.5t1 -0.5q0 -1 0.5 -1t0.5 -1v-2l1 -8v-2q1 -1 3 -1q1 0 2 1t1 2v8v2q0 1 0.5 1t0.5 1q1 0 1 0.5t1 0.5h2h2q1 0 1 -0.5t1 -0.5
q0 -1 0.5 -1t0.5 -1v-2v-22z" />
    </font>
</defs>
</svg>
